<?xml version="1.0" standalone="no"?>
<!DOCTYPE svg PUBLIC "-//W3C//DTD SVG 1.1//EN" "http://www.w3.org/Graphics/SVG/1.1/DTD/svg11.dtd" >
<svg xmlns="http://www.w3.org/2000/svg">
  <metadata>Created by iconfont</metadata>
  <defs>
  <font id="iconfont" horiz-adv-x="1024">
    <font-face
      font-family="iconfont"
      font-weight="400"
      font-stretch="normal"
      units-per-em="1024"
      ascent="896"
      descent="-128"
    />
      <missing-glyph />
      
      <glyph glyph-name="xiaoximiandarao1" unicode="&#59696;" d="M601.6 28.8a38.4 38.4 0 0 0 0-76.864H422.4a38.4 38.4 0 0 0 0 76.8h179.2zM116.672 738.24a38.4 38.4 0 0 0 54.336 0.064L257.28 652.16V652.16l54.272-54.208v-0.064l415.104-415.168h0.128l76.992-76.992h-0.128l37.12-37.12a38.4 38.4 0 0 0-54.272-54.4l-91.52 91.52H153.6v0.192h-19.2a38.4 38.4 0 0 0 0 76.8h19.2V400.128c0 70.4 20.416 136.128 55.552 191.488L116.672 684.032a38.4 38.4 0 0 0 0 54.272zM518.4 816a38.4 38.4 0 0 0 38.4-38.4v-19.2c0-0.896-0.256-1.856-0.32-2.688A358.4 358.4 0 0 0 870.4 400.128v-217.408h19.2a38.208 38.208 0 1 0 12.288-74.496 38.08 38.08 0 0 1-9.856 17.856L793.6 224.512V400.128a281.6 281.6 0 0 1-420.48 244.928l-55.936 55.872a356.288 356.288 0 0 0 162.88 56.128l-0.128 1.28V777.6a38.4 38.4 0 0 0 38.4 38.4zM265.152 535.68A280.32 280.32 0 0 1 230.4 400.064v-217.408h387.584L265.152 535.68z"  horiz-adv-x="1024" />
      
      <glyph glyph-name="shipin2" unicode="&#59697;" d="M819.2 798.72H204.8c-71.68 0-133.12-61.44-133.12-133.12v-460.8c0-71.68 61.44-133.12 133.12-133.12h117.76l20.48-40.96c10.24-15.36 25.6-30.72 46.08-30.72h245.76c20.48 0 35.84 10.24 46.08 30.72l20.48 40.96H819.2c71.68 0 133.12 61.44 133.12 133.12v460.8c0 71.68-61.44 133.12-133.12 133.12z m71.68-593.92c0-40.96-30.72-71.68-71.68-71.68H204.8c-40.96 0-71.68 30.72-71.68 71.68v460.8c0 40.96 30.72 71.68 71.68 71.68h614.4c40.96 0 71.68-30.72 71.68-71.68v-460.8zM460.8 552.96c-20.48 15.36-51.2 0-51.2-25.6v-184.32c0-25.6 30.72-40.96 51.2-25.6l122.88 92.16c15.36 10.24 15.36 35.84 0 51.2L460.8 552.96z"  horiz-adv-x="1024" />
      
      <glyph glyph-name="wenzhang1" unicode="&#59698;" d="M890.88 609.28l-204.8 204.8c-5.12 5.12-15.36 10.24-20.48 10.24H256C184.32 824.32 122.88 762.88 122.88 691.2v-614.4c0-71.68 61.44-133.12 133.12-133.12h512c71.68 0 133.12 61.44 133.12 133.12V588.8c0 10.24 0 15.36-10.24 20.48zM768 5.12H256c-40.96 0-71.68 30.72-71.68 71.68V691.2c0 40.96 30.72 71.68 71.68 71.68h394.24v-138.24c0-30.72 20.48-51.2 51.2-51.2h138.24V76.8c0-40.96-30.72-71.68-71.68-71.68zM665.6 414.72H358.4c-15.36 0-30.72-15.36-30.72-30.72s15.36-30.72 30.72-30.72h307.2c15.36 0 30.72 15.36 30.72 30.72s-15.36 30.72-30.72 30.72zM665.6 209.92H358.4c-15.36 0-30.72-15.36-30.72-30.72s15.36-30.72 30.72-30.72h307.2c15.36 0 30.72 15.36 30.72 30.72s-15.36 30.72-30.72 30.72z"  horiz-adv-x="1024" />
      
      <glyph glyph-name="wodexuexi1" unicode="&#59699;" d="M480.1024 791.296a71.0656 71.0656 0 0 0 62.976 0l0.1024 0.0512 370.432-171.52 0.6144-0.3072 0.6656-0.3584c52.6336-27.3408 49.5104-102.7584-4.864-125.952l-0.6144-0.256-0.512-0.2048-370.4832-140.9536v0.0512c-17.2032-6.9632-36.352-6.9632-53.5552 0L114.432 492.6976l-0.6144 0.2048-0.512 0.256c-54.4256 23.1936-57.5488 98.6112-4.864 125.952L109.056 619.52l0.6144 0.256 370.432 171.5712z m36.0448-55.0912a9.8304 9.8304 0 0 1-8.96 0l-0.6144-0.3072-0.6656-0.3072-369.3568-171.008a8.0896 8.0896 0 0 1 0.6656-14.7968l369.5104-140.5952 0.512-0.2048 0.5632-0.256c2.4576-1.024 5.2736-1.024 7.68 0l0.512 0.256 0.5632 0.2048 369.4592 140.5952a8.0896 8.0896 0 0 1 0.7168 14.7456l-369.3568 171.0592-0.6656 0.3072-0.5632 0.3072zM187.904 243.3536V494.4896h61.44v-251.136c0-26.4704 14.5408-50.7904 37.888-63.2832l190.6688-101.6832c21.0944-11.264 46.4384-11.264 67.4816 0l190.6688 101.6832a71.68 71.68 0 0 1 37.9392 63.2832V494.4896h61.44v-251.136a133.12 133.12 0 0 0-70.5024-117.4528l-190.6176-101.7344a133.12 133.12 0 0 0-125.3376 0L258.3552 125.952a133.12 133.12 0 0 0-70.4512 117.4528zM917.504 357.7344l-0.6656-6.1952a30.72 30.72 0 0 0-60.16 0l-0.6144 6.144V514.048a30.72 30.72 0 1 0 61.44 0v-156.2624z"  horiz-adv-x="1024" />
      
      <glyph glyph-name="pengyouquan1" unicode="&#59619;" d="M394.3936 829.44a458.752 458.752 0 0 0 296.4992-20.8896l-7.5776-333.9264L394.3936 829.44zM113.8176 615.7824a456.704 456.704 0 0 0 72.3968 94.0544 457.0112 457.0112 0 0 0 152.0128 100.864l230.912-241.4592-455.3216 46.592zM66.56 266.3424a458.24 458.24 0 0 0 20.8384 296.448l334.0288-7.4752L66.56 266.3424zM280.1664-14.1824a461.1072 461.1072 0 0 0-194.816 224.3584l241.4592 230.8096-46.592-455.168zM512-76.8a457.472 457.472 0 0 0-178.8416 36.1472l7.5776 333.9264 288.9216-354.816A461.9264 461.9264 0 0 0 512-76.8zM454.912 198.656l455.3216-46.5408a459.0592 459.0592 0 0 0-72.3968-93.952 455.6288 455.6288 0 0 0-152.064-100.9152L454.9632 198.656zM602.624 212.48l354.816 289.024c10.24-38.4 15.36-77.9776 15.36-117.6064a455.7312 455.7312 0 0 0-36.1984-178.8416l-333.9776 7.4752zM743.8336 782.1312c34.304-19.8656 65.9456-44.1856 94.0032-72.2944a454.4 454.4 0 0 0 100.864-152.0128l-241.4592-230.8608 46.592 455.168z"  horiz-adv-x="1024" />
      
      <glyph glyph-name="weixin1" unicode="&#59618;" d="M728.064 544.256c-11.3152 1.792-22.6816 1.792-34.048 1.792-172.544 0-307.2-126.6176-307.3024-281.1392 0-26.112 3.84-50.176 11.3664-74.496-13.312-1.792-24.6784-1.792-36.0448-1.792-45.4656 0-81.5616 9.216-127.0272 18.5344l-126.976-61.3376 36.0448 106.0864C53.1456 313.3952 0 395.264 0 492.032 0 659.6096 163.072 793.6 362.1376 793.6c178.2784 0 333.824-106.1376 365.9776-249.344zM192.3584 603.7504c0-25.7536 26.8288-44.1856 55.4496-44.1856 26.7776 0 45.9264 18.3296 45.824 44.1856 0 25.7024-19.0464 44.1856-45.824 44.1856s-55.4496-16.5376-55.4496-44.1856z m351.8464-5.632c0 26.112-17.0496 44.6464-45.5168 44.6464-26.4192 0-54.9376-16.7424-54.9376-44.5952 0-25.9584 26.5216-44.6464 54.9376-44.6464 26.624 0 45.5168 18.5344 45.5168 44.6464zM716.8 527.2576c163.072 0 307.1488-115.3024 307.1488-258.6624 0-80.0768-54.9888-150.784-126.976-204.8L923.4944-25.6l-98.6112 53.9648c-36.0448-9.216-72.0384-18.5344-108.0832-18.5344-172.5952 0-309.1456 115.3536-309.1456 258.7136 0 141.4144 136.5504 258.6624 309.1456 258.6624z m69.632-170.4448c0-18.3296 19.0976-34.9696 36.2496-34.9696 26.8288 0 45.824 16.5376 45.824 34.9696 0 16.5376-18.9952 34.9696-45.824 34.9696-17.152 0-36.3008-18.3296-36.3008-34.9696z m-206.2848-8.192c0-18.688 19.0464-35.4304 36.096-35.4304 28.416 0 45.4656 16.7424 45.4656 35.4304 0 16.896-18.944 35.4304-45.4656 35.4304-17.2032 0-36.096-18.688-36.096-35.4304z"  horiz-adv-x="1024" />
      
      <glyph glyph-name="quxiaozhiding1" unicode="&#59614;" d="M870.4 757.76H153.6a35.84 35.84 0 0 0 0 71.68h716.8a35.84 35.84 0 0 0 0-71.68z m-252.0576-189.952L538.624 647.168a35.9936 35.9936 0 0 1-52.0704 1.3312l-316.7232-315.5968a35.6864 35.6864 0 0 1 0-50.5856 35.9936 35.9936 0 0 1 50.7904 0L476.16 536.8832v-111.2064l71.68 71.68v39.5776l19.8144-19.7632 50.688 50.688zM547.84 251.2384l-71.68-71.68V-25.6a35.84 35.84 0 0 1 71.68 0v276.7872zM690.9952 394.24l50.688 50.688 112.5376-112.128a35.6864 35.6864 0 0 0 0-50.5856 35.9936 35.9936 0 0 0-50.7904 0L690.9952 394.24zM281.344 56.6272l506.88 506.8288a35.84 35.84 0 0 1-50.688 50.688l-506.88-506.88a35.84 35.84 0 0 1 50.688-50.688z"  horiz-adv-x="1024" />
      
      <glyph glyph-name="zhiding2" unicode="&#59615;" d="M153.6 757.76h716.8a35.84 35.84 0 0 1 0 71.68H153.6a35.84 35.84 0 1 1 0-71.68z m333.056-109.2096l-316.7744-315.648a35.6864 35.6864 0 0 1 0-50.5856 35.9936 35.9936 0 0 1 50.7904 0L476.16 536.8832V-25.6a35.84 35.84 0 0 1 71.68 0V536.9344l255.5904-254.6688a35.9936 35.9936 0 0 1 50.7904 0 35.6864 35.6864 0 0 1 0 50.5856l-315.4944 314.368a35.9936 35.9936 0 0 1-52.0704 1.3312z"  horiz-adv-x="1024" />
      
      <glyph glyph-name="shangcheng" unicode="&#59613;" d="M588.8 829.44A138.24 138.24 0 0 0 727.04 691.2v-15.36h15.36A189.44 189.44 0 0 0 931.84 486.4v-307.2a240.64 240.64 0 0 0-240.64-240.64h-358.4A240.64 240.64 0 0 0 92.16 179.2V486.4a189.44 189.44 0 0 0 189.44 189.44h15.36V691.2a138.24 138.24 0 0 0 138.24 138.24h153.6z m-307.2-225.28A117.76 117.76 0 0 1 163.84 486.4v-307.2a168.96 168.96 0 0 1 168.96-168.96h358.4a168.96 168.96 0 0 1 168.96 168.96V486.4a117.76 117.76 0 0 1-117.76 117.76h-15.36V537.6a35.84 35.84 0 0 0-71.68 0V604.16H368.64V537.6a35.84 35.84 0 0 0-71.68 0V604.16h-15.36z m153.6 153.6A66.56 66.56 0 0 1 368.64 691.2v-15.36h286.72V691.2a66.56 66.56 0 0 1-66.56 66.56h-153.6z"  horiz-adv-x="1024" />
      
      <glyph glyph-name="AI" unicode="&#59612;" d="M466.432 669.781333a42.666667 42.666667 0 0 0 41.258667-31.872l143.658666-550.442666a25.6 25.6 0 0 0-24.832-32.042667h-107.008a25.6 25.6 0 0 0-24.874666 19.541333L398.378667 470.314667a8.533333 8.533333 0 0 1-16.042667 1.536l-116.650667-255.445334a8.533333 8.533333 0 0 1 9.216-11.946666l79.786667 13.781333a25.6 25.6 0 0 0 26.794667-37.546667L333.397333 93.013333a25.6 25.6 0 0 0-20.096-13.226666l-196.352-17.834667a42.666667 42.666667 0 0 0-42.965333 59.52L301.226667 644.138667a42.666667 42.666667 0 0 0 39.125333 25.642666h126.08z m362.24-307.2a42.666667 42.666667 0 0 0 42.325333-47.872l-27.52-221.866666a42.666667 42.666667 0 0 0-42.325333-37.418667h-80.042667a42.666667 42.666667 0 0 0-42.368 47.914667l27.52 221.866666a42.666667 42.666667 0 0 0 42.325334 37.418667h80.085333z m-20.010667 350.378667a12.373333 12.373333 0 0 0 11.264-8.96l20.864-73.429333c4.992-17.493333 17.749333-31.701333 34.56-38.442667l70.826667-28.416a12.373333 12.373333 0 0 0-1.194667-23.381333l-73.429333-20.906667a57.856 57.856 0 0 1-38.4-34.56l-28.416-70.912a12.202667 12.202667 0 0 0-4.778667-5.802667 12.586667 12.586667 0 0 0-14.506666 0.768 12.16 12.16 0 0 0-4.181334 6.272l-20.821333 73.386667a57.728 57.728 0 0 1-12.714667 23.168 59.562667 59.562667 0 0 1-21.845333 15.36l-70.826667 28.330667a12.672 12.672 0 0 0-5.888 4.906666 12.373333 12.373333 0 0 0 7.125334 18.56l73.386666 20.821334c17.450667 4.992 31.658667 17.706667 38.4 34.645333l28.416 70.869333a12.16 12.16 0 0 0 12.16 7.68z"  horiz-adv-x="1024" />
      
      <glyph glyph-name="web" unicode="&#59611;" d="M793.6 814.08a138.24 138.24 0 0 0 138.24-138.24v-409.6a138.24 138.24 0 0 0-138.24-138.24h-149.6576v-97.28H732.16a35.84 35.84 0 0 0 0-71.68H291.84a35.84 35.84 0 0 0 0 71.68h88.576V128H230.4a138.24 138.24 0 0 0-138.24 138.24v409.6a138.24 138.24 0 0 0 138.24 138.24h563.2zM452.096 128v-97.28h120.1664V128H452.096zM163.84 266.24a66.56 66.56 0 0 1 66.56-66.56h563.2a66.56 66.56 0 0 1 66.56 66.56v51.2H163.84v-51.2zM230.4 742.4a66.56 66.56 0 0 1-66.56-66.56v-286.72h696.32V675.84A66.56 66.56 0 0 1 793.6 742.4h-563.2z"  horiz-adv-x="1024" />
      
      <glyph glyph-name="gouxuan3" unicode="&#59610;" d="M179.2 409.6a30.72 30.72 0 0 1 0-43.4176l184.8832-211.3024a30.6176 30.6176 0 0 1 43.4688 0l435.968 435.968a30.72 30.72 0 1 1-43.4176 43.4688l-414.2592-363.1104L222.6688 409.6a30.72 30.72 0 0 1-43.4688 0z"  horiz-adv-x="1024" />
      
      <glyph glyph-name="jieshi1" unicode="&#59606;" d="M512.2048 203.5712a50.688 50.688 0 0 0 0-101.2736 50.688 50.688 0 0 0 0 101.2736zM512.2048 660.48a151.2448 151.2448 0 0 0 150.7328-151.3984c0-23.4496-8.96-43.776-21.504-61.952-12.544-18.0736-29.0304-34.56-44.544-50.176a401.5104 401.5104 0 0 1-34.048-36.6592c-9.2672-12.0832-14.336-22.528-14.336-31.4368v-48.3328a36.352 36.352 0 0 0-72.6016-0.0512v48.384c0 25.4464 9.7792 47.616 23.1936 67.072 13.312 19.456 30.72 36.8128 46.3872 52.48 11.6736 11.6736 23.04 23.04 31.5904 33.8944 6.656 8.3456 10.752 15.4624 12.4416 21.3504l0.768 5.4272c0 40.8064-30.8224 74.3936-70.144 78.4384l-7.936 0.3584c-43.9808 0-78.1312-33.792-78.1312-76.8a36.352 36.352 0 0 0-29.0304-35.584l-7.2704-0.768a36.352 36.352 0 0 0-36.352 36.352c0 82.432 67.7376 149.4016 150.784 149.4016zM512 829.44a445.44 445.44 0 1 0 0-890.88 445.44 445.44 0 0 0 0 890.88z m0-71.68a373.76 373.76 0 1 1 0-747.52 373.76 373.76 0 0 1 0 747.52z"  horiz-adv-x="1024" />
      
      <glyph glyph-name="shujutongji" unicode="&#59607;" d="M634.1632 529.152a35.84 35.84 0 1 0 62.8736-34.304l-83.7632-153.6a35.9424 35.9424 0 0 0-48.7424-14.2336l-106.1376 58.368-67.584-144.5888a35.84 35.84 0 0 0-64.8704 30.4128l83.7632 179.2a35.84 35.84 0 0 0 49.7664 16.1792l108.0832-59.392 66.56 121.9584zM742.4 803.84a189.44 189.44 0 0 0 189.44-189.44v-460.8a189.44 189.44 0 0 0-189.44-189.44h-460.8a189.44 189.44 0 0 0-189.44 189.44v460.8a189.44 189.44 0 0 0 189.44 189.44h460.8z m-460.8-71.68a117.76 117.76 0 0 1-117.76-117.76v-460.8a117.76 117.76 0 0 1 117.76-117.76h460.8a117.76 117.76 0 0 1 117.76 117.76v460.8a117.76 117.76 0 0 1-117.76 117.76h-460.8z"  horiz-adv-x="1024" />
      
      <glyph glyph-name="zuopinguanli" unicode="&#59608;" d="M716.8 803.84a189.44 189.44 0 0 0 189.44-189.44v-460.8a189.44 189.44 0 0 0-189.44-189.44H307.2a189.44 189.44 0 0 0-189.44 189.44v460.8A189.44 189.44 0 0 0 307.2 803.84h409.6zM307.2 732.16a117.76 117.76 0 0 1-117.76-117.76v-460.8A117.76 117.76 0 0 1 307.2 35.84h409.6a117.76 117.76 0 0 1 117.76 117.76v460.8A117.76 117.76 0 0 1 716.8 732.16H307.2z m271.36-378.88a35.84 35.84 0 0 0 0-71.68H343.04a35.84 35.84 0 0 0 0 71.68h235.52z m102.4 204.8a35.84 35.84 0 0 0 0-71.68H343.04a35.84 35.84 0 0 0 0 71.68h337.92z"  horiz-adv-x="1024" />
      
      <glyph glyph-name="shouye1" unicode="&#59609;" d="M397.2096 770.2016a189.44 189.44 0 0 0 229.5808 0l230.4-175.5648A189.44 189.44 0 0 0 931.84 443.9552v-296.96a189.44 189.44 0 0 0-189.44-189.44h-460.8a189.44 189.44 0 0 0-189.44 189.44v296.96c0 59.136 27.648 114.8928 74.6496 150.7328l230.4 175.5136z m186.1632-57.0368a117.76 117.76 0 0 1-142.7456 0L210.2272 537.6A117.76 117.76 0 0 1 163.84 443.9552v-296.96a117.76 117.76 0 0 1 117.76-117.76h460.8a117.76 117.76 0 0 1 117.76 117.76v296.96a117.76 117.76 0 0 1-46.3872 93.696l-230.4 175.5136z m46.3872-494.4384a35.84 35.84 0 0 0 0-71.68H394.24a35.84 35.84 0 0 0 0 71.68h235.52z"  horiz-adv-x="1024" />
      
      <glyph glyph-name="jubao2" unicode="&#59605;" d="M512 668.16a368.64 368.64 0 0 0 368.64-368.64v-296.96h56.32a35.84 35.84 0 0 0 0-71.68H87.04a35.84 35.84 0 0 0 0 71.68h56.32v296.96a368.64 368.64 0 0 0 368.64 368.64z m0-71.68a296.96 296.96 0 0 1-296.96-296.96v-296.96h593.92v296.96a296.96 296.96 0 0 1-296.96 296.96zM184.6272 768a35.84 35.84 0 0 0 48.9984-13.1072l25.6-44.3904a35.84 35.84 0 1 0-62.1056-35.7888l-25.6 44.288a35.8912 35.8912 0 0 0 13.1072 48.9984z m606.4128-13.1072a35.84 35.84 0 1 0 62.0544-35.84l-25.6-44.3392a35.84 35.84 0 1 0-62.0544 35.84l25.6 44.3392zM512 837.12a35.84 35.84 0 0 0 35.84-35.84v-51.2a35.84 35.84 0 0 0-71.68 0v51.2a35.84 35.84 0 0 0 35.84 35.84z"  horiz-adv-x="1024" />
      
      <glyph glyph-name="quxiaofabu" unicode="&#59604;" d="M330.752 564.992a35.84 35.84 0 0 0 50.688 0.0512L511.6928 434.688l130.3552 130.304a35.84 35.84 0 0 0 50.688-50.688l-130.4064-130.2528 130.4064-130.3552a35.8912 35.8912 0 0 0-50.688-50.688L511.6928 333.312 381.44 203.008a35.84 35.84 0 1 0-50.6368 50.688L461.056 384 330.7008 514.3552a35.84 35.84 0 0 0 0.0512 50.688zM512 829.44a445.44 445.44 0 1 0 0-890.88 445.44 445.44 0 0 0 0 890.88z m0-71.68a373.76 373.76 0 1 1 0-747.52 373.76 373.76 0 0 1 0 747.52z"  horiz-adv-x="1024" />
      
      <glyph glyph-name="daoruwendang" unicode="&#59599;" d="M640 797.866667l3.114667-0.170667c0.512-0.042667 1.024-0.213333 1.536-0.298667 0.981333-0.128 1.92-0.298667 2.858666-0.512a29.738667 29.738667 0 0 0 9.514667-4.48l1.194667-0.768a29.824 29.824 0 0 0 3.797333-3.456l234.666667-256a29.653333 29.653333 0 0 0 5.248-8.106666l0.853333-2.218667c0.298667-0.853333 0.512-1.792 0.768-2.688 0.170667-0.725333 0.426667-1.408 0.512-2.133333l0.128-1.152c0.170667-1.28 0.341333-2.56 0.341333-3.882667v-128a29.866667 29.866667 0 0 0-59.733333 0V482.133333H725.333333A115.2 115.2 0 0 0 610.133333 597.333333V738.133333H277.333333A98.133333 98.133333 0 0 1 179.2 640v-512a98.133333 98.133333 0 0 1 98.133333-98.133333h469.333334a98.133333 98.133333 0 0 1 98.133333 98.133333 29.866667 29.866667 0 0 0 59.733333 0 157.866667 157.866667 0 0 0-157.866666-157.866667h-469.333334A157.866667 157.866667 0 0 0 119.466667 128V640a157.866667 157.866667 0 0 0 157.866666 157.866667H640z m-19.498667-431.146667a29.866667 29.866667 0 0 0 42.24-42.24l-27.477333-27.52h239.786667a29.866667 29.866667 0 0 0 0-59.733333h-239.658667l27.349333-27.349334a29.866667 29.866667 0 0 0-42.24-42.24l-78.421333 78.421334a29.866667 29.866667 0 0 0 0 42.24l78.421333 78.421333zM669.866667 597.333333A55.466667 55.466667 0 0 1 725.333333 541.866667h81.493334L669.866667 691.242667V597.333333z"  horiz-adv-x="1024" />
      
      <glyph glyph-name="biaoge" unicode="&#59600;" d="M768 776.533333a157.866667 157.866667 0 0 0 157.866667-157.866666v-469.333334a157.866667 157.866667 0 0 0-157.866667-157.866666H256a157.866667 157.866667 0 0 0-157.866667 157.866666v469.333334A157.866667 157.866667 0 0 0 256 776.533333h512z m-226.133333-725.333333H768a98.133333 98.133333 0 0 1 98.133333 98.133333v204.8h-324.266666v-302.933333z m-384 98.133333A98.133333 98.133333 0 0 1 256 51.2h226.133333v302.933333H157.866667v-204.8z m384 264.533334h324.266666V618.666667A98.133333 98.133333 0 0 1 768 716.8h-226.133333v-302.933333zM256 716.8a98.133333 98.133333 0 0 1-98.133333-98.133333v-204.8h324.266666V716.8H256z"  horiz-adv-x="1024" />
      
      <glyph glyph-name="lianjie2" unicode="&#59601;" d="M204.245333 540.885333a29.866667 29.866667 0 0 0 42.24-42.24l-45.226666-45.226666a268.8 268.8 0 1 1 380.16-380.16l45.226666 45.226666a29.866667 29.866667 0 0 0 42.24-42.24l-45.226666-45.226666a328.533333 328.533333 0 0 0-464.64 464.64l45.226666 45.226666z m196.138667 196.096a328.533333 328.533333 0 0 0 464.64-464.64l-45.269333-45.226666a29.866667 29.866667 0 0 0-42.24 42.24l45.226666 45.226666a268.8 268.8 0 1 1-380.16 380.16l-45.226666-45.226666a29.866667 29.866667 0 0 0-42.24 42.24l45.226666 45.226666z m190.037333-232.32a29.866667 29.866667 0 0 0 42.24-42.24l-199.082666-199.082666a29.866667 29.866667 0 0 0-42.24 42.24l199.082666 199.082666z"  horiz-adv-x="1024" />
      
      <glyph glyph-name="daimakuai" unicode="&#59602;" d="M597.333333 853.333333a29.866667 29.866667 0 0 0 29.866667-29.866666l-170.666667-878.933334a29.866667 29.866667 0 0 0-59.733333 0l170.666667 878.933334A29.866667 29.866667 0 0 0 597.333333 853.333333zM294.698667 669.226667a29.866667 29.866667 0 0 0 42.24-42.24L93.866667 383.829333 336.981333 140.8a29.866667 29.866667 0 0 0-42.24-42.24l-252.16 252.16a46.933333 46.933333 0 0 0 0 66.346667l252.16 252.16z m392.448 0a29.866667 29.866667 0 0 0 42.24 0l252.16-252.16a46.933333 46.933333 0 0 0-0.085334-66.346667l-252.16-252.16a29.866667 29.866667 0 0 0-42.154666 42.24l243.072 243.072-243.072 243.072a29.866667 29.866667 0 0 0 0 42.24z"  horiz-adv-x="1024" />
      
      <glyph glyph-name="fengexian" unicode="&#59603;" d="M257.066667 115.072a29.866667 29.866667 0 0 0 0-59.733333H136.533333a29.866667 29.866667 0 0 0 0 59.733333h120.533334z m354.133333 0a29.866667 29.866667 0 0 0 0-59.733333h-198.4a29.866667 29.866667 0 0 0 0 59.733333h198.4z m276.266667 0a29.866667 29.866667 0 0 0 0-59.733333h-120.533334a29.866667 29.866667 0 0 0 0 59.733333H887.466667z m0 298.666667a29.866667 29.866667 0 0 0 0-59.733334H136.533333a29.866667 29.866667 0 0 0 0 59.733334h750.933334zM257.066667 712.533333a29.866667 29.866667 0 0 0 0-59.733333H136.533333a29.866667 29.866667 0 0 0 0 59.733333h120.533334z m354.133333 0a29.866667 29.866667 0 0 0 0-59.733333h-198.4a29.866667 29.866667 0 0 0 0 59.733333h198.4z m276.266667 0a29.866667 29.866667 0 0 0 0-59.733333h-120.533334a29.866667 29.866667 0 0 0 0 59.733333H887.466667z"  horiz-adv-x="1024" />
      
      <glyph glyph-name="chexiao1" unicode="&#59589;" d="M485.845333 797.866667c232.832 0 422.826667-184.661333 422.826667-413.866667 0-229.205333-189.994667-413.866667-422.826667-413.866667-150.314667 0-282.538667 76.885333-357.504 192.853334a29.866667 29.866667 0 0 0 50.176 32.426666c64.213333-99.328 177.749333-165.546667 307.328-165.546666 201.130667 0 363.050667 159.189333 363.050667 354.133333 0 194.944-161.92 354.133333-363.093333 354.133333-92.8 0-177.408-33.962667-241.536-89.770666L309.333333 583.296a17.066667 17.066667 0 0 0-10.922666-29.141333l-169.258667-11.264a17.066667 17.066667 0 0 0-18.176 18.133333l11.264 169.301333a17.066667 17.066667 0 0 0 29.098667 10.965334l50.645333-50.645334A426.410667 426.410667 0 0 0 485.845333 797.866667z"  horiz-adv-x="1024" />
      
      <glyph glyph-name="zhongzuo" unicode="&#59590;" d="M533.76 797.866667c-232.832 0-422.784-184.661333-422.784-413.866667 0-229.205333 189.952-413.866667 422.826667-413.866667 150.272 0 282.453333 76.885333 357.461333 192.853334a29.866667 29.866667 0 0 1-50.176 32.426666c-64.213333-99.328-177.749333-165.546667-307.328-165.546666-201.130667 0-363.050667 159.189333-363.050667 354.133333 0 194.944 161.92 354.133333 363.093334 354.133333 92.8 0 177.408-33.962667 241.536-89.770666l-65.066667-65.066667a17.066667 17.066667 0 0 1 10.922667-29.141333l169.301333-11.264a17.066667 17.066667 0 0 1 18.133333 18.133333l-11.264 169.301333a17.066667 17.066667 0 0 1-29.098666 10.965334l-50.645334-50.645334A426.410667 426.410667 0 0 1 533.76 797.866667z"  horiz-adv-x="1024" />
      
      <glyph glyph-name="qingchugeshi" unicode="&#59591;" d="M823.466667 4.48a29.866667 29.866667 0 0 0 0-59.733333H200.533333a29.866667 29.866667 0 0 0 0 59.733333h622.933334z m-370.389334 770.986667a121.770667 121.770667 0 0 0 173.098667 14.08l247.68-214.314667a125.056 125.056 0 0 0 14.165333-174.421333l-232.874666-279.168a76.032 76.032 0 0 0-58.325334-27.392h-276.48c-18.688 0-36.693333 6.997333-50.645333 19.456L147.968 224.853333a125.013333 125.013333 0 0 0-12.117333 173.098667l317.226666 377.514667z m134.101334-31.146667a61.994667 61.994667 0 0 1-88.32-7.253333l-317.269334-377.514667a65.322667 65.322667 0 0 1 6.229334-90.24l121.770666-111.146667a16.170667 16.170667 0 0 1 10.794667-4.138666h276.48a16.213333 16.213333 0 0 1 12.416 5.888l232.874667 279.168a65.322667 65.322667 0 0 1-7.253334 90.922666l-247.722666 214.314667z"  horiz-adv-x="1024" />
      
      <glyph glyph-name="biaoti" unicode="&#59592;" d="M789.333333 768a29.866667 29.866667 0 0 0 29.866667-29.866667v-708.266666a29.866667 29.866667 0 0 0-59.733333 0v324.266666H264.533333v-324.266666a29.866667 29.866667 0 0 0-59.733333 0V738.133333a29.866667 29.866667 0 0 0 59.733333 0v-324.266666h494.933334V738.133333a29.866667 29.866667 0 0 0 29.866666 29.866667z"  horiz-adv-x="1024" />
      
      <glyph glyph-name="jiacu1" unicode="&#59593;" d="M554.666667 797.866667a221.866667 221.866667 0 0 0 129.792-401.749334A221.952 221.952 0 0 0 597.333333-29.866667H277.333333A72.533333 72.533333 0 0 0 204.8 42.666667V725.333333a72.533333 72.533333 0 0 0 72.533333 72.533334H554.666667zM264.533333 42.666667a12.8 12.8 0 0 1 12.8-12.8H597.333333a162.133333 162.133333 0 1 1 0 324.266666H264.533333V42.666667z m12.8 695.466666a12.8 12.8 0 0 1-12.8-12.8v-311.466666H554.666667a162.133333 162.133333 0 1 1 0 324.266666H277.333333z"  horiz-adv-x="1024" />
      
      <glyph glyph-name="yanse" unicode="&#59594;" d="M823.466667 46.72a29.866667 29.866667 0 0 0 0-59.733333H200.533333a29.866667 29.866667 0 0 0 0 59.733333h622.933334z m-349.866667 714.24a46.933333 46.933333 0 0 0 80.341333-6.058667l283.434667-566.826666a29.866667 29.866667 0 0 0-53.418667-26.752l-105.088 210.133333a29.994667 29.994667 0 0 0-4.736-0.469333H349.866667a30.08 30.08 0 0 0-4.778667 0.469333l-105.045333-210.090667a29.866667 29.866667 0 0 0-53.418667 26.709334l283.434667 566.826666 3.584 6.058667z m-98.901333-330.24h274.602666L512 705.28l-137.301333-274.56z"  horiz-adv-x="1024" />
      
      <glyph glyph-name="beijing" unicode="&#59595;" d="M460.8 767.104a115.2 115.2 0 0 0 162.901333 0l271.530667-271.488a115.242667 115.242667 0 0 0 0-162.986667l-331.861333-331.861333a115.242667 115.242667 0 0 0-162.986667 0l-271.488 271.530667a115.2 115.2 0 0 0 0 162.944l212.821333 212.821333-67.157333 67.157333a29.866667 29.866667 0 0 0 42.24 42.24L384 690.346667l76.8 76.8z m371.541333-564.053333c35.370667 0 64-95.061333 64-137.173334 0-42.069333-28.629333-76.202667-64-76.202666-35.328 0-64 34.133333-64 76.202666 0 42.112 28.672 137.130667 64 137.130667z m-250.88 521.813333a55.466667 55.466667 0 0 1-78.421333 0l-76.842667-76.8 2.090667-2.048a29.866667 29.866667 0 0 0-42.24-42.24l-2.133333 2.090667-119.936-120.021334 536.618666-163.285333 52.394667 52.352a55.466667 55.466667 0 0 1 0 78.421333L581.418667 724.906667z"  horiz-adv-x="1024" />
      
      <glyph glyph-name="duiqi" unicode="&#59596;" d="M823.466667 115.2a29.866667 29.866667 0 0 0 0-59.733333H200.533333a29.866667 29.866667 0 0 0 0 59.733333h622.933334z m0 298.666667a29.866667 29.866667 0 0 0 0-59.733334H200.533333a29.866667 29.866667 0 0 0 0 59.733334h622.933334z m0 298.666666a29.866667 29.866667 0 0 0 0-59.733333H200.533333a29.866667 29.866667 0 0 0 0 59.733333h622.933334z"  horiz-adv-x="1024" />
      
      <glyph glyph-name="youxuliebiao" unicode="&#59597;" d="M827.733333 93.44a29.866667 29.866667 0 0 0 0-59.776H375.466667a29.866667 29.866667 0 0 0 0 59.733333h452.266666zM913.066667 264.106667a29.866667 29.866667 0 0 0 0-59.776H375.466667a29.866667 29.866667 0 0 0 0 59.733333h537.6zM827.733333 565.418667a29.866667 29.866667 0 1 0 0-59.733334H375.466667a29.866667 29.866667 0 0 0 0 59.733334h452.266666zM913.066667 736.085333a29.866667 29.866667 0 1 0 0-59.733333H375.466667a29.866667 29.866667 0 0 0 0 59.733333h537.6zM193.706667 490.154667H136.746667V676.821333c-12.928-8.746667-27.776-15.573333-44.714667-20.48L81.066667 653.226667V710.826667l6.442666 1.621333a136.533333 136.533333 0 0 1 32.768 13.525333c11.690667 7.210667 21.205333 14.506667 28.714667 22.357334l2.56 2.602666h42.197333v-260.778666zM178.346667 281.6c22.186667 0 41.472-5.632 57.429333-17.28l6.613333-5.333333 6.058667-6.058667c12.928-14.378667 19.328-32.170667 19.328-53.248 0-23.594667-9.216-44.714667-26.069333-63.402667l-0.085334-0.085333c-10.325333-11.050667-28.16-24.490667-52.053333-40.533333l-0.042667-0.042667c-15.786667-10.410667-26.88-19.541333-33.92-27.306667h112.512v-52.266666H81.066667v8.533333c0 26.88 8.576 50.474667 26.453333 70.528 9.685333 11.178667 29.226667 26.709333 57.472 46.08 15.274667 10.666667 25.6 19.370667 31.914667 25.984 9.429333 10.666667 13.866667 21.674667 13.866666 32.853333 0 11.733333-3.285333 19.114667-7.936 23.466667-4.949333 4.437333-13.098667 7.253333-25.856 7.253333-12.842667 0-21.333333-4.266667-26.88-11.861333l-0.213333-0.213333c-5.888-7.509333-9.813333-20.053333-10.453333-38.4l-0.298667-8.234667H82.346667l0.128 8.661333c0.384 28.970667 8.789333 52.992 26.197333 71.594667 17.834667 19.626667 41.386667 29.312 69.717333 29.312z m-88.448-249.002667l-0.298667-8.021333c0 2.901333 0.128 5.802667 0.341333 8.618667l-0.042666-0.597334z m78.08 58.197334c-1.194667-0.853333-2.304-1.834667-3.413334-2.730667 3.456 2.773333 7.253333 5.717333 11.392 8.618667l-7.978666-5.845334z m-76.629334 98.56l-0.384-8.789334c0.042667 3.114667 0.213333 6.186667 0.426667 9.173334v-0.426667z m46.848 26.453333l-0.554666-1.28 0.853333 1.834667-0.298667-0.554667z"  horiz-adv-x="1024" />
      
      <glyph glyph-name="wuxuliebiao" unicode="&#59598;" d="M832 91.264a29.866667 29.866667 0 0 0 0-59.733333H379.733333a29.866667 29.866667 0 0 0 0 59.733333h452.266667zM917.333333 261.930667a29.866667 29.866667 0 0 0 0-59.733334H379.733333a29.866667 29.866667 0 0 0 0 59.733334h537.6zM832 563.285333a29.866667 29.866667 0 1 0 0-59.733333H379.733333a29.866667 29.866667 0 0 0 0 59.733333h452.266667zM917.333333 733.952a29.866667 29.866667 0 1 0 0-59.733333H379.733333a29.866667 29.866667 0 0 0 0 59.733333h537.6zM247.466667 143.061333a55.466667 55.466667 0 1 1-110.933334 0 55.466667 55.466667 0 0 1 110.933334 0z m59.733333 0a115.2 115.2 0 1 0-230.4 0 115.2 115.2 0 0 0 230.4 0zM247.466667 625.066667a55.466667 55.466667 0 1 1-110.933334 0 55.466667 55.466667 0 0 1 110.933334 0z m59.733333 0a115.2 115.2 0 1 0-230.4 0 115.2 115.2 0 0 0 230.4 0z"  horiz-adv-x="1024" />
      
      <glyph glyph-name="fabu1" unicode="&#59584;" d="M778.752 824.7296c105.3696 27.3408 201.3184-68.608 173.9776-173.9776l-156.8768-605.2352c-31.3856-121.0368-192.256-146.1248-258.9696-40.2944l-150.6816 239.104a44.5952 44.5952 0 0 1-13.8752 13.8752l-239.104 150.6816C27.4432 475.648 52.48 636.4672 173.5168 667.8528L778.752 824.7296z m104.6528-155.9552a71.1168 71.1168 0 0 1-86.6304 86.6304L191.488 598.4256c-60.2624-15.616-72.704-95.6928-20.0192-128.8704l225.792-142.336 163.2256 163.2256c12.032 11.9808 33.1264 10.3424 47.104-3.6352 13.9776-14.0288 15.616-35.072 3.584-47.104l-161.5872-161.536 147.968-234.7008c33.2288-52.6848 113.2544-40.2432 128.9216 20.0192l156.928 605.2864z"  horiz-adv-x="1024" />
      
      <glyph glyph-name="tianjiatupian" unicode="&#59585;" d="M768 778.24A189.44 189.44 0 0 0 957.44 588.8v-204.8a35.84 35.84 0 0 0-71.68 0V588.8A117.76 117.76 0 0 1 768 706.56H256A117.76 117.76 0 0 1 138.24 588.8v-409.6A117.76 117.76 0 0 1 256 61.44h256a35.84 35.84 0 0 0 0-71.68H256A189.44 189.44 0 0 0 66.56 179.2V588.8A189.44 189.44 0 0 0 256 778.24h512z m35.84-481.28a35.84 35.84 0 0 0 35.84-35.84V179.2H921.6a35.84 35.84 0 0 0 0-71.68h-81.92V25.6a35.84 35.84 0 0 0-71.68 0v81.92h-81.92a35.84 35.84 0 0 0 0 71.68H768v81.92a35.84 35.84 0 0 0 35.84 35.84z m-42.9568 168.0384a35.84 35.84 0 0 0 39.8336-59.5968l-192.1536-128.1024a87.04 87.04 0 0 0-115.2 16.6912L422.4 379.2896a15.36 15.36 0 0 1-19.456 3.5328l-141.8752-81.1008a35.84 35.84 0 0 0-35.6352 62.1568l141.9776 81.152a87.04 87.04 0 0 0 110.08-19.8144l71.0656-85.2992a15.36 15.36 0 0 1 20.2752-2.9696l192.1024 128.0512zM307.2 640a51.2 51.2 0 1 0 0-102.4 51.2 51.2 0 0 0 0 102.4z"  horiz-adv-x="1024" />
      
      <glyph glyph-name="fengge" unicode="&#59586;" d="M512 829.44a266.24 266.24 0 0 0 261.9904-313.344A266.3424 266.3424 0 0 0 716.8-10.24a265.3184 265.3184 0 0 0-183.9104 73.8816 266.24 266.24 0 1 0-269.312 403.8144A266.24 266.24 0 0 0 512 829.44zM302.2848 399.2576A194.5088 194.5088 0 0 1 307.2 10.24a194.56 194.56 0 0 1 170.0352 289.0752 265.7792 265.7792 0 0 0-174.9504 99.9424zM716.8 450.56a194.6112 194.6112 0 0 1-177.664-115.0464 265.216 265.216 0 0 0 25.088-200.1408A194.56 194.56 0 1 1 716.8 450.56z m-204.8 307.2a194.56 194.56 0 0 1-34.9696-385.8944 266.2912 266.2912 0 0 0 225.0752 150.016A194.56 194.56 0 0 1 512 757.76z"  horiz-adv-x="1024" />
      
      <glyph glyph-name="zhinengzhaiyao" unicode="&#59587;" d="M512 829.44a35.84 35.84 0 0 0 0-71.68H307.2A117.76 117.76 0 0 1 189.44 640v-512A117.76 117.76 0 0 1 307.2 10.24h409.6a117.76 117.76 0 0 1 117.76 117.76v256a35.84 35.84 0 0 0 71.68 0v-256a189.44 189.44 0 0 0-189.44-189.44H307.2A189.44 189.44 0 0 0 117.76 128V640A189.44 189.44 0 0 0 307.2 829.44h204.8z m15.36-527.36a35.84 35.84 0 0 0 0-71.68H343.04a35.84 35.84 0 0 0 0 71.68h184.32z m153.6 256a35.84 35.84 0 0 0 0-71.68H343.04a35.84 35.84 0 0 0 0 71.68h337.92z m103.0656 262.5536a10.24 10.24 0 0 0 19.0976 0l10.3936-26.2656a102.4 102.4 0 0 1 57.7024-57.6512l26.2144-10.3936a10.24 10.24 0 0 0 0-19.0976l-26.2144-10.3424a102.4 102.4 0 0 1-57.7024-57.7024l-10.3424-26.2144a10.24 10.24 0 0 0-19.0976 0l-10.3936 26.2144a102.4 102.4 0 0 1-57.7024 57.7024l-26.2144 10.3424a10.24 10.24 0 0 0 0 19.0976l26.2144 10.3936a102.4 102.4 0 0 1 57.7024 57.6512l10.3424 26.2656z"  horiz-adv-x="1024" />
      
      <glyph glyph-name="zhinengfengmian" unicode="&#59588;" d="M768 778.24A189.44 189.44 0 0 0 957.44 588.8v-204.8a35.84 35.84 0 0 0-71.68 0V588.8A117.76 117.76 0 0 1 768 706.56H256A117.76 117.76 0 0 1 138.24 588.8v-409.6A117.76 117.76 0 0 1 256 61.44h256a35.84 35.84 0 0 0 0-71.68H256A189.44 189.44 0 0 0 66.56 179.2V588.8A189.44 189.44 0 0 0 256 778.24h512z m16.0256-572.0064a10.24 10.24 0 0 0 19.0976 0l10.3936-26.2656a102.4 102.4 0 0 1 57.7024-57.6512l26.2144-10.4448a10.24 10.24 0 0 0 0-19.0464l-26.2144-10.3424a102.4 102.4 0 0 1-57.7024-57.7024l-10.3424-26.2144a10.24 10.24 0 0 0-19.0976 0l-10.3936 26.2144a102.4 102.4 0 0 1-57.7024 57.7024l-26.2144 10.3424a10.24 10.24 0 0 0 0 19.0464l26.2144 10.4448a102.4 102.4 0 0 1 57.7024 57.6512l10.3424 26.2656z m-23.1424 258.7648a35.84 35.84 0 0 0 39.8336-59.5968l-192.1536-128.1024a87.04 87.04 0 0 0-115.2 16.6912L422.4 379.2896a15.36 15.36 0 0 1-19.456 3.5328l-141.8752-81.1008a35.84 35.84 0 0 0-35.6352 62.1568l141.9776 81.152a87.04 87.04 0 0 0 110.08-19.8144l71.0656-85.2992a15.36 15.36 0 0 1 20.2752-2.9696l192.1024 128.0512zM307.2 640a51.2 51.2 0 1 0 0-102.4 51.2 51.2 0 0 0 0 102.4z"  horiz-adv-x="1024" />
      
      <glyph glyph-name="qiehuanbianjiqi" unicode="&#59583;" d="M870.4 317.44a35.84 35.84 0 0 0 26.8288-59.648l-204.8-230.4a35.84 35.84 0 0 0-53.6064 47.616l151.808 170.7008H153.6a35.84 35.84 0 0 0 0 71.68h716.8zM331.6224 740.5568a35.84 35.84 0 0 0 53.6064-47.616L233.4208 522.24H870.4a35.84 35.84 0 0 0 0-71.68H153.6a35.84 35.84 0 0 0-26.7776 59.5968l204.8 230.4z"  horiz-adv-x="1024" />
      
      <glyph glyph-name="shanchuxian" unicode="&#59579;" d="M512 776.533333c91.306667 0 152.746667-26.794667 191.488-64.426666 38.186667-37.12 51.712-82.346667 51.712-114.773334a29.866667 29.866667 0 0 0-59.733333 0c0 17.365333-7.808 46.805333-33.621334 71.936C636.544 693.76 591.317333 716.8 512 716.8 374.272 716.8 328.533333 640.341333 328.533333 597.333333c0-25.429333 8.448-65.792 45.226667-104.874666 32.170667-34.133333 87.850667-69.248 183.338667-91.392H823.466667a29.866667 29.866667 0 0 0 0-59.733334h-126.805334c12.970667-13.738667 23.338667-29.184 31.402667-45.312 21.461333-42.922667 27.136-90.709333 27.136-125.354666 0-84.992-82.261333-179.2-243.2-179.2-91.306667 0-152.746667 26.794667-191.488 64.426666C282.368 93.013333 268.8 138.24 268.8 170.666667a29.866667 29.866667 0 0 0 59.733333 0c0-17.365333 7.808-46.805333 33.621334-71.936 25.301333-24.576 70.528-47.530667 149.845333-47.530667 137.728 0 183.466667 76.458667 183.466667 119.466667 0 29.354667-4.992 66.901333-20.864 98.645333-15.274667 30.592-40.362667 55.509333-83.157334 64.085333h-0.085333a805.12 805.12 0 0 0-40.448 7.936H200.533333a29.866667 29.866667 0 0 0 0 59.733334h192.938667a302.634667 302.634667 0 0 0-63.232 50.474666C281.685333 503.168 268.8 558.762667 268.8 597.333333c0 84.992 82.261333 179.2 243.2 179.2z"  horiz-adv-x="1024" />
      
      <glyph glyph-name="xiahuaxian" unicode="&#59580;" d="M810.666667 51.2a29.866667 29.866667 0 0 0 0-59.733333H213.333333a29.866667 29.866667 0 0 0 0 59.733333h597.333334z m0 725.333333a29.866667 29.866667 0 0 0 29.866666-29.866666v-256a328.533333 328.533333 0 0 0-657.066666 0v256a29.866667 29.866667 0 0 0 59.733333 0v-256a268.8 268.8 0 1 1 537.6 0v256a29.866667 29.866667 0 0 0 29.866667 29.866666z"  horiz-adv-x="1024" />
      
      <glyph glyph-name="jiacu" unicode="&#59581;" d="M533.333333 797.866667a221.866667 221.866667 0 0 0 142.848-391.552A221.866667 221.866667 0 0 0 618.666667-29.866667H256A72.533333 72.533333 0 0 0 183.466667 42.666667V725.333333A72.533333 72.533333 0 0 0 256 797.866667h277.333333zM243.2 42.666667a12.8 12.8 0 0 1 12.8-12.8h362.666667a162.133333 162.133333 0 1 1 0 324.266666H243.2V42.666667zM256 738.133333a12.8 12.8 0 0 1-12.8-12.8v-311.466666h290.133333a162.133333 162.133333 0 1 1 0 324.266666H256z"  horiz-adv-x="1024" />
      
      <glyph glyph-name="qingxie" unicode="&#59582;" d="M832 755.2a29.866667 29.866667 0 0 0 0-59.733333h-231.936l-136.32-622.933334H704a29.866667 29.866667 0 0 0 0-59.733333h-512a29.866667 29.866667 0 0 0 0 59.733333h210.645333L538.88 695.466667h-218.88a29.866667 29.866667 0 0 0 0 59.733333h512z"  horiz-adv-x="1024" />
      
      <glyph glyph-name="shaixuan_fuben" unicode="&#59578;" d="M358.4 230.4a25.6 25.6 0 0 0 25.6-25.6v-153.6a25.6 25.6 0 0 0-51.2 0v51.2H204.8a25.6 25.6 0 0 0 0 51.2h128v51.2A25.6 25.6 0 0 0 358.4 230.4z m460.8-76.8a25.6 25.6 0 0 0 0-51.2h-307.2a25.6 25.6 0 0 0 0 51.2h307.2zM512 486.4a25.6 25.6 0 0 0 25.6-25.6v-153.6a25.6 25.6 0 0 0-51.2 0v51.2H204.8a25.6 25.6 0 0 0 0 51.2h281.6v51.2A25.6 25.6 0 0 0 512 486.4z m307.2-76.8a25.6 25.6 0 0 0 0-51.2h-153.6a25.6 25.6 0 0 0 0 51.2h153.6zM665.6 742.4a25.6 25.6 0 0 0 25.6-25.6v-51.2H819.2a25.6 25.6 0 0 0 0-51.2h-128v-51.2a25.6 25.6 0 0 0-51.2 0v153.6A25.6 25.6 0 0 0 665.6 742.4z m-153.6-76.8a25.6 25.6 0 0 0 0-51.2H204.8a25.6 25.6 0 0 0 0 51.2h307.2z"  horiz-adv-x="1024" />
      
      <glyph glyph-name="app-store" unicode="&#61798;" d="M511.8 654.2l18.2 31.4c11.2 19.6 36.2 26.2 55.8 15 19.6-11.2 26.2-36.2 15-55.8l-175-303h126.6c41 0 64-48.2 46.2-81.6H227.6c-22.6 0-40.8 18.2-40.8 40.8 0 22.6 18.2 40.8 40.8 40.8h104l133.2 230.8-41.6 72.2c-11.2 19.6-4.6 44.4 15 55.8 19.6 11.2 44.4 4.6 55.8-15l17.8-31.4z m-157.4-436l-39.2-68c-11.2-19.6-36.2-26.2-55.8-15-19.6 11.2-26.2 36.2-15 55.8l29.2 50.4c32.8 10.2 59.6 2.4 80.8-23.2z m337.8 123.4h106.2c22.6 0 40.8-18.2 40.8-40.8 0-22.6-18.2-40.8-40.8-40.8h-59l39.8-69c11.2-19.6 4.6-44.4-15-55.8-19.6-11.2-44.4-4.6-55.8 15-67 116.2-117.4 203.2-150.8 261.2-34.2 59-9.8 118.2 14.4 138.2 26.8-46 66.8-115.4 120.2-208zM512 880C238 880 16 658 16 384s222-496 496-496 496 222 496 496S786 880 512 880z m432-496c0-237.4-192.2-432-432-432-237.4 0-432 192.2-432 432 0 237.4 192.2 432 432 432 237.4 0 432-192.2 432-432z"  horiz-adv-x="1024" />
      
      <glyph glyph-name="yijianfankui" unicode="&#59577;" d="M296.96 455.68a51.2 51.2 0 1 0 0-102.4 51.2 51.2 0 0 0 0 102.4zM512 455.68a51.2 51.2 0 1 0 0-102.4 51.2 51.2 0 0 0 0 102.4zM727.04 455.68a51.2 51.2 0 1 0 0-102.4 51.2 51.2 0 0 0 0 102.4zM512 850.944c258.048 0 471.04-197.4272 471.04-445.44 0-248.0128-212.992-445.44-471.04-445.44-44.544 0-87.6032 5.9392-128.512 16.896l-111.7184-41.1136A76.8 76.8 0 0 0 169.5744-5.12l-22.3232 129.1264C81.1008 200.4992 40.96 298.3936 40.96 405.504 40.96 653.5168 253.952 850.944 512 850.944z m0-71.68c-222.6176 0-399.36-169.3696-399.36-373.76 0-86.1184 31.1808-165.5808 83.9168-229.0688l10.8544-12.4928 3.1232-3.9424a35.8912 35.8912 0 0 0 5.632-13.9776l24.064-138.9568a5.12 5.12 0 0 1 6.7584-3.9936l122.5216 45.1072a35.8912 35.8912 0 0 0 22.528 0.768A424.448 424.448 0 0 1 512 31.744c222.6176 0 399.36 169.3696 399.36 373.76s-176.7424 373.76-399.36 373.76z"  horiz-adv-x="1024" />
      
      <glyph glyph-name="dingdan" unicode="&#59575;" d="M691.2 829.44A240.64 240.64 0 0 0 931.84 588.8v-291.1744c0-35.9936-14.0288-70.656-39.168-96.4608l-215.0912-220.8256a138.2912 138.2912 0 0 0-99.072-41.7792H332.8A240.64 240.64 0 0 0 92.16 179.2V588.8a240.64 240.64 0 0 0 240.64 240.64h358.4z m-358.4-71.68A168.96 168.96 0 0 1 163.84 588.8v-409.6a168.96 168.96 0 0 1 168.96-168.96h220.16V128a189.44 189.44 0 0 0 189.44 189.44h117.76V588.8a168.96 168.96 0 0 1-168.96 168.96h-358.4z m409.6-512a117.76 117.76 0 0 1-117.76-117.76v-99.072c0.512 0.512 1.0752 0.9216 1.536 1.4336l209.8176 215.3984H742.4zM512 419.84a35.84 35.84 0 0 0 0-71.68H358.4a35.84 35.84 0 0 0 0 71.68h153.6z m153.6 204.8a35.84 35.84 0 0 0 0-71.68H358.4a35.84 35.84 0 0 0 0 71.68h307.2z"  horiz-adv-x="1024" />
      
      <glyph glyph-name="wodejubao" unicode="&#59574;" d="M497.4592 826.5728c9.728 1.1264 19.4048 1.1264 29.0816 0 74.752-8.2944 225.4336-29.8496 342.7328-61.696A85.3504 85.3504 0 0 0 931.84 682.1888v-347.904c0-70.8096-47.7696-152.2688-113.408-220.672-67.072-69.8368-159.3344-132.9664-260.7104-165.2224a150.9376 150.9376 0 0 0-91.4432 0c-101.376 32.256-193.6384 95.3856-260.7104 165.2736C139.9296 182.016 92.16 263.4752 92.16 334.336V682.1376c0 37.7344 24.576 72.3968 62.5152 82.688 117.3504 31.8464 268.032 53.4016 342.784 61.696z m7.936-71.2192c-73.3184-8.192-219.8528-29.184-331.8784-59.5968a13.6704 13.6704 0 0 1-9.6768-13.568v-347.904c0-42.752 31.9488-107.008 93.3888-171.008 60.0576-62.5152 142.336-118.4768 230.8096-146.5856 15.616-4.9664 32.3072-4.9664 47.9232 0 88.4224 28.1088 170.752 84.0704 230.8096 146.5856 61.44 64 93.3888 128.256 93.3888 171.008V682.1888a13.6704 13.6704 0 0 1-9.6768 13.568c-112.0256 30.4128-258.56 51.4048-331.8784 59.5968a59.136 59.136 0 0 1-13.2096 0zM512 249.344a46.08 46.08 0 1 0-0.1024-92.16 46.08 46.08 0 0 0 0.1024 92.16z m0 358.4a35.84 35.84 0 0 0 35.84-35.84v-235.52a35.84 35.84 0 1 0-71.68 0v235.52a35.84 35.84 0 0 0 35.84 35.84z"  horiz-adv-x="1024" />
      
      <glyph glyph-name="chuangzuozhongxin" unicode="&#59573;" d="M627.712 768.2048a121.6512 121.6512 0 0 0 172.032 0l96.4608-96.512a121.6512 121.6512 0 0 0 0-171.9808l-499.8144-499.8144c-9.728-9.728-22.528-15.6672-36.1984-16.896l-203.9808-18.5856a58.7264 58.7264 0 0 0-63.7952 63.7952l18.5344 204.032 0.7168 5.12c2.0992 11.6736 7.7312 22.528 16.2304 31.0784l499.8144 499.7632z m121.2928-50.6368a49.9712 49.9712 0 0 1-70.6048 0l-496.4864-496.4864-16.6912-183.808 183.808 16.6912 496.5376 496.4352a49.9712 49.9712 0 0 1 0 70.656l-96.5632 96.512zM895.2832 35.84a35.84 35.84 0 0 0 0-71.68h-295.5264a35.84 35.84 0 0 0 0 71.68h295.5264z"  horiz-adv-x="1024" />
      
      <glyph glyph-name="jianpan1" unicode="&#59572;" d="M762.88 215.04a35.84 35.84 0 0 0 0-71.68H261.12a35.84 35.84 0 0 0 0 71.68h501.76zM276.48 419.84a51.2 51.2 0 1 0 0-102.4 51.2 51.2 0 0 0 0 102.4zM512 419.84a51.2 51.2 0 1 0-0.0512-102.4 51.2 51.2 0 0 0 0.0512 102.4zM747.52 419.84a51.2 51.2 0 1 0 0-102.4512 51.2 51.2 0 0 0 0 102.4512zM276.48 624.64a51.2 51.2 0 1 0 0-102.4 51.2 51.2 0 0 0 0 102.4zM512 624.64a51.2 51.2 0 1 0-0.0512-102.4 51.2 51.2 0 0 0 0.0512 102.4zM747.52 624.64a51.2 51.2 0 1 0 0-102.4512 51.2 51.2 0 0 0 0 102.4512zM742.4 803.84a240.64 240.64 0 0 0 240.64-240.64v-358.4a240.64 240.64 0 0 0-240.64-240.64h-460.8a240.64 240.64 0 0 0-240.64 240.64v358.4a240.64 240.64 0 0 0 240.64 240.64h460.8z m-460.8-71.68a168.96 168.96 0 0 1-168.96-168.96v-358.4a168.96 168.96 0 0 1 168.96-168.96h460.8a168.96 168.96 0 0 1 168.96 168.96v358.4a168.96 168.96 0 0 1-168.96 168.96h-460.8z"  horiz-adv-x="1024" />
      
      <glyph glyph-name="biaoqing" unicode="&#59576;" d="M901.12 384a389.12 389.12 0 1 1-778.24 0 389.12 389.12 0 0 1 389.12-389.12V-76.8a460.8 460.8 0 1 0 0 921.6 460.8 460.8 0 0 0 0-921.6v71.68a389.12 389.12 0 0 1 389.12 389.12zM409.6 506.88a61.44 61.44 0 1 0-122.88 0 61.44 61.44 0 0 0 122.88 0zM737.28 506.88a61.44 61.44 0 1 0-122.88 0 61.44 61.44 0 0 0 122.88 0zM656.2816 281.6c13.6704 0 23.5008-13.2608 17.6128-25.6a179.2 179.2 0 0 0-323.84 0c-5.888 12.3392 3.9424 25.6 17.6128 25.6h288.6144z"  horiz-adv-x="1024" />
      
      <glyph glyph-name="yinyong" unicode="&#59569;" d="M278.698667 766.037333a16.64 16.64 0 0 0 22.741333-7.381333l11.477333-22.912a17.493333 17.493333 0 0 0-7.466666-23.125333c-25.685333-13.866667-57.685333-33.834667-84.693334-58.581334C187.605333 623.658667 166.4 590.165333 166.4 555.221333v-170.538666h196.266667a85.333333 85.333333 0 0 0 85.333333-85.333334v-213.333333l-0.426667-8.704a85.333333 85.333333 0 0 0-76.202666-76.202667l-8.704-0.426666h-170.666667l-8.704 0.426666a85.333333 85.333333 0 0 0-76.629333 84.906667V555.221333c0 59.690667 35.712 107.989333 73.685333 142.805334 32.384 29.696 69.717333 52.650667 98.346667 68.010666zM166.4 86.016a25.6 25.6 0 0 1 25.6-25.6h170.666667a25.6 25.6 0 0 1 25.6 25.6v213.333333a25.6 25.6 0 0 1-25.6 25.6H166.4v-238.933333zM748.032 766.037333a16.64 16.64 0 0 0 22.741333-7.381333l11.477334-22.912a17.493333 17.493333 0 0 0-7.466667-23.125333c-25.685333-13.866667-57.685333-33.834667-84.693333-58.581334-33.152-30.378667-54.357333-63.872-54.357334-98.816v-170.538666h196.266667a85.333333 85.333333 0 0 0 85.333333-85.333334v-213.333333l-0.426666-8.704a85.333333 85.333333 0 0 0-76.202667-76.202667l-8.704-0.426666h-170.666667l-8.704 0.426666a85.333333 85.333333 0 0 0-76.629333 84.906667V555.221333c0 59.690667 35.712 107.989333 73.685333 142.805334 32.384 29.696 69.717333 52.650667 98.346667 68.010666zM635.733333 86.016a25.6 25.6 0 0 1 25.6-25.6h170.666667a25.6 25.6 0 0 1 25.6 25.6v213.333333a25.6 25.6 0 0 1-25.6 25.6h-196.266667v-238.933333z"  horiz-adv-x="1024" />
      
      <glyph glyph-name="chehui" unicode="&#59568;" d="M283.648 808.704a35.84 35.84 0 0 0 50.688-50.688L216.3712 640H588.8a343.04 343.04 0 0 0 0-686.08h-409.6a35.84 35.84 0 0 0 0 71.68h409.6a271.36 271.36 0 0 1 0 542.72H212.736L334.336 446.6688a35.84 35.84 0 0 0-50.688-50.688L102.656 577.024a35.84 35.84 0 0 0 0 50.688L283.648 808.704z"  horiz-adv-x="1024" />
      
      <glyph glyph-name="pingbi" unicode="&#59571;" d="M761.6 342.4a198.4 198.4 0 1 0 0-396.736 198.4 198.4 0 0 0 0 396.736z m-63.744-301.888a121.6 121.6 0 0 1 176.64 148.224l-176.64-148.224z m63.68 225.152a121.6 121.6 0 0 1-113.024-166.336l176.64 148.224a120.96 120.96 0 0 1-63.616 18.112zM472.896 265.152c22.208 0 40.192-16.448 40.192-36.736 0-20.288-17.984-36.672-40.192-36.736-148.352 0-275.904-81.536-331.84-198.4-8.896-18.56-32.64-27.008-52.928-18.88-20.352 8.128-29.632 29.824-20.736 48.448 68.224 142.528 224.064 242.304 405.504 242.304zM512.064 822.4a230.4 230.4 0 1 0 0-460.8 230.4 230.4 0 0 0 0 460.8z m0-76.8a153.6 153.6 0 1 1 0-307.2 153.6 153.6 0 0 1 0 307.2z"  horiz-adv-x="1024" />
      
      <glyph glyph-name="quanzi2" unicode="&#59570;" d="M512 624.64a35.84 35.84 0 0 0 0-71.68 168.96 168.96 0 1 1 168.96-168.96 35.84 35.84 0 0 0 71.68 0A240.64 240.64 0 1 0 512 624.64zM665.6 588.8a51.2 51.2 0 1 0 0-102.4 51.2 51.2 0 0 0 0 102.4zM512 842.24a458.24 458.24 0 1 0 0-916.48 458.24 458.24 0 0 0 0 916.48z m0-71.68a386.56 386.56 0 1 1 0-773.12 386.56 386.56 0 0 1 0 773.12z"  horiz-adv-x="1024" />
      
      <glyph glyph-name="yijiagou" unicode="&#59566;" d="M304.64 17.92a61.44 61.44 0 1 0 0-122.9824 61.44 61.44 0 0 0 0 122.9824z m532.48 0a61.44 61.44 0 1 0 0-122.9824 61.44 61.44 0 0 0 0 122.9824zM84.48 872.96c37.2736 0 64.5632-16.4352 82.5856-36.864 16.2304-18.432 24.6272-39.68 28.4672-55.2448h0.1024c7.424-24.6784 14.6432-52.9408 20.3776-76.9024h661.76a138.24 138.24 0 0 0 134.8096-168.9088l-81.5104-349.9008a138.24 138.24 0 0 0-134.8096-107.5712H353.024a138.2912 138.2912 0 0 0-137.0112 119.552L150.784 667.4944l-3.2256 14.848a1406.976 1406.976 0 0 1-20.6336 77.9264l-0.3072 1.1776-0.3072 1.2288a62.2592 62.2592 0 0 1-13.0048 26.0096 35.7888 35.7888 0 0 1-28.8256 12.544h-40.96a35.84 35.84 0 0 0 0 71.68h40.96z m202.5472-666.112a66.56 66.56 0 0 1 65.9968-57.6h443.2384a66.56 66.56 0 0 1 64.8704 51.8144l81.5616 349.9008a66.56 66.56 0 0 1-64.8704 81.3056H227.9424l59.0848-425.472z m465.92 328.8064a35.84 35.84 0 0 0 50.688-50.688l-237.7728-237.7728c-0.3072-0.3584-0.5632-0.768-0.9216-1.0752a36.352 36.352 0 0 0-50.9952-0.1024c-0.5632 0.512-0.9728 1.28-1.536 1.8944l-128.512 128.512a35.84 35.84 0 0 0 50.688 50.688l104.8576-104.9088 213.504 213.4528z"  horiz-adv-x="1024" />
      
      <glyph glyph-name="jiagou" unicode="&#59567;" d="M304.64 17.92a61.44 61.44 0 1 0 0-122.9824 61.44 61.44 0 0 0 0 122.9824z m532.48 0a61.44 61.44 0 1 0 0-122.9824 61.44 61.44 0 0 0 0 122.9824zM84.48 872.96c37.2736 0 64.5632-16.4352 82.5856-36.864 16.2304-18.432 24.6272-39.68 28.4672-55.2448h0.1024c7.424-24.6784 14.6432-52.9408 20.3776-76.9024h661.76a138.24 138.24 0 0 0 134.8096-168.9088l-81.5104-349.9008a138.24 138.24 0 0 0-134.8096-107.5712H353.024a138.2912 138.2912 0 0 0-137.0112 119.552L150.784 667.4944l-3.2256 14.848a1406.976 1406.976 0 0 1-20.6336 77.9264l-0.3072 1.1776-0.3072 1.2288a62.2592 62.2592 0 0 1-13.0048 26.0096 35.7888 35.7888 0 0 1-28.8256 12.544h-40.96a35.84 35.84 0 0 0 0 71.68h40.96z m202.5472-666.112a66.56 66.56 0 0 1 65.9968-57.6h443.2384a66.56 66.56 0 0 1 64.8704 51.8144l81.5616 349.9008a66.56 66.56 0 0 1-64.8704 81.3056H227.9424l59.0848-425.472zM583.68 542.72c19.8144 0 35.84-16.0768 35.84-35.84v-81.92h81.92a35.84 35.84 0 0 0 0-71.68h-81.92v-81.92a35.8912 35.8912 0 0 0-71.68 0v81.92H465.92a35.84 35.84 0 0 0 0 71.68h81.92V506.88a35.84 35.84 0 0 0 35.84 35.84z"  horiz-adv-x="1024" />
      
      <glyph glyph-name="loading" unicode="&#59565;" d="M511.8976 853.3504a42.6496 42.6496 0 0 0 42.7008-42.7008v-128a42.752 42.752 0 0 0-59.0336-39.424 42.6496 42.6496 0 0 0-26.3168 39.424v128a42.6496 42.6496 0 0 0 42.6496 42.7008zM746.6496 790.272a42.6496 42.6496 0 0 0 15.5648-58.2656l-64-110.848a42.7008 42.7008 0 1 0-73.8816 42.6496l64 110.848a42.6496 42.6496 0 0 0 58.2656 15.616h0.0512zM918.3232 618.496a42.6496 42.6496 0 0 0-15.616-58.2656l-110.848-64a42.6496 42.6496 0 0 0-42.6496 73.8816l110.848 64a42.6496 42.6496 0 0 0 58.2656-15.616zM981.3504 384a42.6496 42.6496 0 0 0-42.7008-42.6496h-128a42.6496 42.6496 0 0 0 0 85.2992h128a42.6496 42.6496 0 0 0 42.7008-42.6496zM918.528 149.1968a42.6496 42.6496 0 0 0-58.368-15.616l-110.848 64a42.6496 42.6496 0 1 0 42.6496 73.9328l110.8992-64a42.6496 42.6496 0 0 0 15.616-58.3168zM746.496-22.7328a42.6496 42.6496 0 0 0-58.2144 15.616l-64 110.8992a42.6496 42.6496 0 0 0 73.8816 42.6496l64-110.8992a42.6496 42.6496 0 0 0-15.616-58.2656zM511.8976-85.3504a42.6496 42.6496 0 0 0-42.6496 42.7008v128a42.6496 42.6496 0 0 0 85.3504 0v-128a42.7008 42.7008 0 0 0-42.7008-42.7008zM277.1456-22.4256a42.6496 42.6496 0 0 0-15.616 58.3168l64 110.8992a42.7008 42.7008 0 1 0 73.9328-42.7008l-64-110.848a42.6496 42.6496 0 0 0-58.3168-15.616zM105.472 149.1456a42.6496 42.6496 0 0 0 15.616 58.2656L231.936 271.36a42.7008 42.7008 0 0 0 42.6496-73.8816l-110.848-64a42.6496 42.6496 0 0 0-58.2656 15.616zM42.6496 384a42.6496 42.6496 0 0 0 42.7008 42.6496h128a42.6496 42.6496 0 1 0 0-85.2992h-128A42.6496 42.6496 0 0 0 42.6496 384zM105.472 618.496a42.6496 42.6496 0 0 0 58.2656 15.616l110.848-64a42.6496 42.6496 0 1 0-42.6496-73.8816l-110.848 64A42.6496 42.6496 0 0 0 105.472 618.496zM277.1456 790.272a42.6496 42.6496 0 0 0 58.3168-15.616l64-110.848a42.6496 42.6496 0 0 0-73.9328-42.6496l-64 110.848a42.6496 42.6496 0 0 0 15.616 58.2656z"  horiz-adv-x="1024" />
      
      <glyph glyph-name="shendusikao" unicode="&#59564;" d="M511.9488 640c117.248 70.2976 230.144 86.1696 286.208 30.1568 56.0128-56.0128 40.0384-168.8576-30.2592-286.208 70.2976-117.248 86.3232-230.0928 30.3104-286.1056-56.064-56.064-168.96-40.0896-286.208 30.208-117.248-70.2976-230.144-86.272-286.1568-30.2592-56.0128 56.0128-40.1408 168.96 30.1568 286.208C185.7536 501.3504 169.8304 614.1952 225.792 670.208c56.0128 56.0128 168.8576 40.0896 286.1056-30.208z m-222.976-305.8176c-47.7696-88.32-57.9584-166.0928-25.4464-198.656 32.5632-32.512 110.2848-22.272 198.656 25.4976a785.1008 785.1008 0 0 0-93.2864 79.872 783.7184 783.7184 0 0 0-79.872 93.2864z m445.952 0c-22.9376-31.6416-49.664-63.1296-79.872-93.2864-30.1056-30.208-61.5936-56.832-93.2352-79.872 88.32-47.7696 166.144-58.0096 198.656-25.4976 32.512 32.5632 22.272 110.336-25.5488 198.656zM512 576.6656a719.616 719.616 0 0 1-105.3696-87.3472A719.872 719.872 0 0 1 319.2832 384a719.5136 719.5136 0 0 1 87.3472-105.3696c34.4064-34.4064 70.1952-63.5904 105.3696-87.3472a719.6672 719.6672 0 0 1 105.3696 87.296A719.36 719.36 0 0 1 704.7168 384a719.4624 719.4624 0 0 1-87.296 105.3184 719.4624 719.4624 0 0 1-105.472 87.3472zM511.9488 441.856a57.856 57.856 0 0 0 40.9088-98.7136A57.856 57.856 0 0 0 454.144 384 57.856 57.856 0 0 0 512 441.856z m248.4736 190.5664c-32.512 32.512-110.2848 22.3232-198.656-25.4464 31.6928-22.9888 63.1296-49.7152 93.3376-79.872 30.1568-30.208 56.832-61.6448 79.872-93.2864 47.7184 88.3712 57.9584 166.0928 25.4464 198.656z m-298.2912-25.4464c-88.32 47.7696-166.0416 57.9584-198.6048 25.4464-32.512-32.512-22.272-110.2336 25.4464-198.5536 23.04 31.6416 49.7664 63.0272 79.9232 93.184 30.208 30.208 61.5936 56.9344 93.2352 79.9232z"  horiz-adv-x="1024" />
      
      <glyph glyph-name="hudongshezhi" unicode="&#59559;" d="M127.0784 718.9504c68.608 69.7344 175.3088 104.3968 278.8864 51.0464l9.984-5.4272 2.56-1.5872c31.6928-21.8112 51.5584-37.376 68.608-50.8928 8.448-6.7584 16.0256-12.8 23.8592-18.8416l5.1712 5.4784a328.3968 328.3968 0 0 0 128.512 77.2608c53.7088 16.9984 117.504 20.3264 179.2-10.496 118.6816-59.3408 175.4624-187.904 147.0976-329.5744-6.9632-34.7648-30.0032-73.1136-57.4976-109.6704-28.2624-37.632-64.6144-77.7728-103.168-116.5312a2350.3872 2350.3872 0 0 0-222.0544-195.584c-44.1856-33.6896-102.0416-30.208-143.7184 2.4064a2208 2208 0 0 0-214.528 192.256C160.1536 280.832 95.744 359.68 66.048 428.8512c-45.1584 105.472-9.1136 218.7776 61.0304 290.0992z m252.3136-16.0768C307.2 743.5264 231.1168 722.432 178.176 668.672c-53.8624-54.784-77.824-137.8816-46.2336-211.6096 24.1152-56.3712 80.5376-127.3344 149.504-198.3488a2136.576 2136.576 0 0 1 207.2576-185.7024c18.0736-14.1312 39.936-14.2336 56.064-1.8944a2280.6016 2280.6016 0 0 1 214.6816 189.1328c37.2736 37.5296 71.168 75.008 96.7168 109.056 26.368 35.1744 40.9088 62.6688 44.544 80.6912 22.784 114.2784-22.8864 208.384-108.9536 251.392-40.7552 20.3776-84.48 19.2512-125.44 6.2976a256.8704 256.8704 0 0 1-99.4304-59.6992c-3.7888-3.7376-12.1856-12.8512-24.2176-26.368-19.6608-22.016-38.656-45.5168-58.0608-69.632-19.2-23.8592-38.912-48.64-59.1872-72.2944a35.84 35.84 0 0 0-54.4768 46.6944c19.3536 22.528 38.1952 46.2336 57.7536 70.5536 11.3664 14.1312 22.9376 28.3648 34.816 42.496-7.2192 5.5296-14.0288 11.008-21.0432 16.5888a1072.4352 1072.4352 0 0 1-63.0784 46.848z"  horiz-adv-x="1024" />
      
      <glyph glyph-name="yinsishezhi" unicode="&#59558;" d="M512 384a35.84 35.84 0 0 0 35.84-35.84v-133.12a35.84 35.84 0 0 0-71.68 0v133.12a35.84 35.84 0 0 0 35.84 35.84zM512 816.64a240.64 240.64 0 0 0 237.9776-204.9536A189.44 189.44 0 0 0 931.84 422.4v-281.6a189.44 189.44 0 0 0-189.44-189.44h-460.8a189.44 189.44 0 0 0-189.44 189.44v281.6a189.44 189.44 0 0 0 181.76 189.2864A240.7424 240.7424 0 0 0 512 816.64z m-230.4-276.48a117.76 117.76 0 0 1-117.76-117.76v-281.6a117.76 117.76 0 0 1 117.76-117.76h460.8a117.76 117.76 0 0 1 117.76 117.76v281.6a117.76 117.76 0 0 1-117.76 117.76h-460.8z m230.4 204.8a169.0112 169.0112 0 0 1-165.12-133.12h330.24A168.96 168.96 0 0 1 512 744.96z"  horiz-adv-x="1024" />
      
      <glyph glyph-name="shebeiguanli" unicode="&#59557;" d="M527.36 79.36a35.84 35.84 0 0 0 0-71.68H343.04a35.84 35.84 0 0 0 0 71.68h184.32zM665.6 760.32a138.24 138.24 0 0 0 138.24-138.24v-81.92H870.4a87.04 87.04 0 0 0 87.04-87.04v-358.4a87.04 87.04 0 0 0-87.04-87.04h-204.8a87.04 87.04 0 0 0-87.04 87.04v30.72H204.8a138.24 138.24 0 0 0-138.24 138.24v358.4A138.24 138.24 0 0 0 204.8 760.32h460.8z m0-291.84a15.36 15.36 0 0 1-15.36-15.36v-358.4a15.36 15.36 0 0 1 15.36-15.36h204.8a15.36 15.36 0 0 1 15.36 15.36v358.4a15.36 15.36 0 0 1-15.36 15.36h-204.8z m-460.8 220.16a66.56 66.56 0 0 1-66.56-66.56v-358.4a66.56 66.56 0 0 1 66.56-66.56h373.76v256a87.04 87.04 0 0 0 87.04 87.04h66.56v81.92a66.56 66.56 0 0 1-66.56 66.56H204.8z"  horiz-adv-x="1024" />
      
      <glyph glyph-name="sanfangxinxi" unicode="&#59563;" d="M524.8 312.32a35.84 35.84 0 0 0 0-71.68h-179.2a35.84 35.84 0 0 0 0 71.68h179.2zM678.4 568.32a35.84 35.84 0 0 0 0-71.68h-332.8a35.84 35.84 0 0 0 0 71.68h332.8zM678.4 824.32a240.64 240.64 0 0 0 240.64-240.64v-399.36a240.64 240.64 0 0 0-240.64-240.64h-332.8a240.64 240.64 0 0 0-240.64 240.64V583.68a240.64 240.64 0 0 0 240.64 240.64h332.8z m-332.8-71.68a168.96 168.96 0 0 1-168.96-168.96v-399.36a168.96 168.96 0 0 1 168.96-168.96h332.8a168.96 168.96 0 0 1 168.96 168.96V583.68a168.96 168.96 0 0 1-168.96 168.96h-332.8z"  horiz-adv-x="1024" />
      
      <glyph glyph-name="gerenxinxi" unicode="&#59562;" d="M478.72 803.84a240.64 240.64 0 0 0 0-481.28 322.56 322.56 0 0 1-322.56-322.56 35.84 35.84 0 0 0-71.68 0 394.3936 394.3936 0 0 0 253.2352 368.2304A240.64 240.64 0 0 0 478.72 803.84z m0-71.68a168.96 168.96 0 1 1 0-337.92 168.96 168.96 0 0 1 0 337.92zM801.28 35.84a35.84 35.84 0 0 0 0-71.68h-133.12a35.84 35.84 0 0 0 0 71.68h133.12zM903.68 166.4a35.84 35.84 0 0 0 0-71.68h-235.52a35.84 35.84 0 0 0 0 71.68h235.52zM903.68 296.96a35.84 35.84 0 0 0 0-71.68h-235.52a35.84 35.84 0 0 0 0 71.68h235.52z"  horiz-adv-x="1024" />
      
      <glyph glyph-name="bangzhuyufankui" unicode="&#59561;" d="M704 778.24a240.64 240.64 0 0 0 240.64-240.64v-307.2a240.64 240.64 0 0 0-240.64-240.64h-384a240.64 240.64 0 0 0-240.64 240.64V537.6a240.64 240.64 0 0 0 240.64 240.64h384z m-120.2176-347.904a240.7936 240.7936 0 0 0-143.616 0L151.04 520.704V230.4a168.96 168.96 0 0 1 168.96-168.96h384a168.96 168.96 0 0 1 168.96 168.96V520.704l-289.1776-90.368zM320 706.56a169.0112 169.0112 0 0 1-159.6928-113.664L461.568 498.688c32.768-10.24 67.9936-10.24 100.8128 0l301.2096 94.1568A168.96 168.96 0 0 1 704 706.56h-384z"  horiz-adv-x="1024" />
      
      <glyph glyph-name="bofangshezhi" unicode="&#59560;" d="M373.76 493.1584c0 69.4784 77.5168 110.9504 135.3216 72.3968l163.7376-109.1584a87.04 87.04 0 0 0 0-144.7936l-163.7376-109.1584c-57.856-38.5536-135.3216 2.9184-135.3216 72.3968V493.1584z m95.5392 12.7488a15.36 15.36 0 0 1-23.8592-12.8v-218.2656a15.36 15.36 0 0 1 23.8592-12.7488l163.6864 109.1072a15.36 15.36 0 0 1 0 25.6L469.2992 505.856zM512 829.44a445.44 445.44 0 1 0 0-890.88 445.44 445.44 0 0 0 0 890.88z m0-71.68a373.76 373.76 0 1 1 0-747.52 373.76 373.76 0 0 1 0 747.52z"  horiz-adv-x="1024" />
      
      <glyph glyph-name="zhanghaoyuanquan" unicode="&#59556;" d="M512 675.84a163.84 163.84 0 1 0 0-327.68 163.84 163.84 0 0 0 0 327.68z m0-71.68a92.16 92.16 0 1 1 0-184.32 92.16 92.16 0 0 1 0 184.32zM512 829.44a445.44 445.44 0 1 0 0-890.88 445.44 445.44 0 0 0 0 890.88z m0-634.88c-100.352 0-190.6176-31.488-257.0752-81.664A372.3264 372.3264 0 0 1 512 10.24a372.2752 372.2752 0 0 1 257.024 102.656c-66.4576 50.176-156.672 81.664-257.024 81.664z m0 563.2a373.76 373.76 0 0 1-304.1792-590.7456C287.9488 228.9664 395.2128 266.24 512 266.24c116.8384 0 224-37.2736 304.128-99.2256A373.76 373.76 0 0 1 512 757.76z"  horiz-adv-x="1024" />
      
      <glyph glyph-name="tishi" unicode="&#59555;" d="M512 829.44a445.44 445.44 0 1 0 0-890.88 445.44 445.44 0 0 0 0 890.88z m0-71.68a373.76 373.76 0 1 1 0-747.52 373.76 373.76 0 0 1 0 747.52z m0-506.88a46.08 46.08 0 1 0-0.1024-92.16 46.08 46.08 0 0 0 0.1024 92.16z m0 358.4a35.84 35.84 0 0 0 35.84-35.84v-235.52a35.84 35.84 0 1 0-71.68 0V573.44c0 19.7632 16.0768 35.84 35.84 35.84z"  horiz-adv-x="1024" />
      
      <glyph glyph-name="renzheng" unicode="&#59554;" d="M640.9728 542.72a41.0112 41.0112 0 0 0 70.912-40.96l-163.7888-283.8016a40.7552 40.7552 0 0 0-34.2016-20.3776 41.984 41.984 0 0 0-5.632 0.1536 40.7552 40.7552 0 0 0-31.744 20.224L312.6784 501.76a40.96 40.96 0 1 0 70.912 40.96l128.6656-222.9248 128.7168 222.8736zM484.2496 822.0672a87.1424 87.1424 0 0 0 55.5008 0l307.2-103.2192A87.0912 87.0912 0 0 0 906.24 636.3136v-396.8512c0-17.9712-7.0656-35.2768-15.0016-49.5616a283.136 283.136 0 0 0-32.8192-45.7728c-26.2656-30.5664-61.8496-63.0784-100.608-92.7744-38.8096-29.7472-81.92-57.4464-123.648-77.9264-40.8576-19.968-84.1216-34.8672-122.1632-34.8672-38.0416 0-81.3056 14.848-122.1632 34.8672-41.728 20.48-84.8384 48.128-123.648 77.9264-38.7584 29.696-74.3424 62.208-100.608 92.7744a283.2384 283.2384 0 0 0-32.8192 45.7728c-7.936 14.336-15.0016 31.5904-15.0016 49.5616v396.8c0 37.376 23.8592 70.656 59.2896 82.5856l307.2 103.2192z m32.6656-67.9424a15.36 15.36 0 0 1-9.8304 0l-307.2-103.2192a15.36 15.36 0 0 1-10.4448-14.592v-396.8512c0-0.256 0.1536-1.4336 0.9216-3.6864 0.9216-2.7648 2.5088-6.4512 5.12-11.0592 5.1712-9.4208 13.3632-20.8384 24.5248-33.792 22.272-25.9584 53.9136-55.1936 89.8048-82.688 35.84-27.4432 74.9056-52.4288 111.5136-70.4 37.5808-18.432 69.0176-27.5968 90.6752-27.5968 21.6576 0 53.0944 9.216 90.624 27.5968 36.6592 17.92 75.776 42.9568 111.616 70.4 35.84 27.4944 67.4816 56.7296 89.7536 82.6368 11.1616 13.0048 19.3536 24.4224 24.576 33.792a66.56 66.56 0 0 1 5.12 11.1104 17.7152 17.7152 0 0 1 0.8704 3.6864v396.8a15.36 15.36 0 0 1-10.4448 14.6432l-307.2 103.2192z"  horiz-adv-x="1024" />
      
      <glyph glyph-name="rili" unicode="&#59553;" d="M665.6 811.52a35.84 35.84 0 0 0 35.84-35.84v-30.72H768a189.44 189.44 0 0 0 189.44-189.44v-409.6a189.44 189.44 0 0 0-189.44-189.44H256a189.44 189.44 0 0 0-189.44 189.44v409.6A189.44 189.44 0 0 0 256 744.96h66.56v30.72a35.84 35.84 0 0 0 71.68 0v-30.72h235.52v30.72a35.84 35.84 0 0 0 35.84 35.84z m-527.36-665.6a117.76 117.76 0 0 1 117.76-117.76h512a117.76 117.76 0 0 1 117.76 117.76v307.2H138.24v-307.2z m373.76 204.8a35.84 35.84 0 0 0 35.84-35.84v-133.12a35.84 35.84 0 0 0-71.68 0v133.12a35.84 35.84 0 0 0 35.84 35.84z m-256 322.56a117.76 117.76 0 0 1-117.76-117.76v-30.72h747.52v30.72a117.76 117.76 0 0 1-117.76 117.76h-66.56v-30.72a35.84 35.84 0 0 0-71.68 0v30.72H394.24v-30.72a35.84 35.84 0 0 0-71.68 0v30.72H256z"  horiz-adv-x="1024" />
      
      <glyph glyph-name="shaixuan" unicode="&#59552;" d="M697.856 578.56a240.64 240.64 0 0 0 161.9456-418.6112c1.536-1.536 3.072-3.1744 4.352-5.0176l76.3392-109.056a35.84 35.84 0 1 0-58.6752-41.1136l-76.3904 109.056a36.2496 36.2496 0 0 0-3.7888 6.9632A240.64 240.64 0 1 0 697.856 578.56zM552.96 61.44a35.84 35.84 0 0 0 0-71.68H112.64a35.84 35.84 0 0 0 0 71.68h440.32z m144.896 445.44a168.96 168.96 0 1 1 0-337.92 168.96 168.96 0 0 1 0 337.92zM348.16 419.84a35.84 35.84 0 0 0 0-71.68H112.64a35.84 35.84 0 0 0 0 71.68h235.52z m563.2 358.4a35.84 35.84 0 0 0 0-71.68H112.64a35.84 35.84 0 0 0 0 71.68h798.72z"  horiz-adv-x="1024" />
      
      <glyph glyph-name="lock-followers" unicode="&#58881;" d="M661.312 852.352a89.504 89.504 0 0 0 88.48-76.256 196.224 196.224 0 0 0 171.776-194.688v-362.56a110.944 110.944 0 0 0 85.312-107.936V0a110.944 110.944 0 0 0-110.912-110.976h-213.344a110.4 110.4 0 0 0-72.224 26.816H298.624a196.256 196.256 0 0 0-196.256 196.256V581.408a196.256 196.256 0 0 0 171.744 194.688 89.536 89.536 0 0 0 88.512 76.256h298.688z m21.312-681.696c-32.96 0-59.744-26.752-59.744-59.744V0c0-32.96 26.752-59.744 59.744-59.744h213.344A59.776 59.776 0 0 1 955.712 0v110.912A59.744 59.744 0 0 1 896 170.656h-213.344zM742.656 725.44a89.504 89.504 0 0 0-81.344-52.288h-298.688c-36.16 0-67.2 21.44-81.376 52.288A145.088 145.088 0 0 1 153.6 581.408v-469.312a145.088 145.088 0 0 1 145.056-145.088h278.08A110.848 110.848 0 0 0 571.744 0v110.912a110.944 110.944 0 0 0 81.632 107.008c-28.672 35.424-80.064 60.928-141.376 60.928-97.504 0-166.4-62.368-166.4-128a25.6 25.6 0 1 0-51.2 0c0 75.52 54.368 135.808 128 163.2a140.8 140.8 0 1 0 179.36 0.032 221.248 221.248 0 0 0 70.08-41.472 128.032 128.032 0 0 0 198.56 48.256V581.44a145.088 145.088 0 0 1-127.712 144z m46.688-618.784a15.36 15.36 0 0 0 15.36-15.36v-71.68a15.36 15.36 0 0 0-30.72 0v71.68a15.36 15.36 0 0 0 15.36 15.36z m-0.032 192a76.864 76.864 0 0 1-76.832-76.8h153.6a76.8 76.8 0 0 1-76.768 76.8zM512 512.16a89.6 89.6 0 1 1 0-179.136 89.6 89.6 0 0 1 0 179.136z m-149.376 288.992a38.4 38.4 0 0 1 0-76.8h298.688a38.4 38.4 0 0 1 0 76.8h-298.688z"  horiz-adv-x="1024" />
      
      <glyph glyph-name="gongju" unicode="&#59551;" d="M424.96 826.112a174.08 174.08 0 0 0 174.08 0l252.3136-145.664a174.08 174.08 0 0 0 87.04-150.784v-291.328a174.1312 174.1312 0 0 0-87.04-150.784L599.04-58.112a174.1312 174.1312 0 0 0-174.08 0L172.6464 87.552a174.1312 174.1312 0 0 0-87.04 150.7328V529.664a174.08 174.08 0 0 0 87.04 150.784L424.96 826.112zM563.2 764.0576a102.4 102.4 0 0 1-102.4 0L208.4864 618.3424l-5.7856-3.584a102.4 102.4 0 0 1-45.4144-85.0944v-291.328l0.2048-6.8608a102.4 102.4 0 0 1 50.9952-81.8176L460.8 3.9424a102.4 102.4 0 0 1 96.4096-3.2256l5.9904 3.2256 252.3136 145.7152a102.4 102.4 0 0 1 50.9952 81.8176l0.2048 6.8096V529.664a102.4 102.4 0 0 1-45.4144 85.0944l-5.7856 3.584L563.2 764.0576zM451.84 572.8256c13.312-0.2048 25.9072-7.68 31.8976-20.5312l142.848-306.2784a35.84 35.84 0 0 0-65.024-30.2592l-37.9392 81.4592a36.2496 36.2496 0 0 0-7.3728-0.768h-133.12c-1.9456 0-3.8912 0.3072-5.7856 0.6656l-37.888-81.408a35.84 35.84 0 0 0-65.024 30.3104l142.848 306.2784a35.7888 35.7888 0 0 0 31.7952 20.5312l0.8704 0.1024h1.1264l0.768-0.1024z m265.1136 0.1024a35.84 35.84 0 0 0 35.84-35.84v-306.176a35.84 35.84 0 0 0-71.68 0V537.088a35.84 35.84 0 0 0 35.84 35.84z m-306.432-204.8H490.496l-40.0384 85.8624-39.9872-85.8624z"  horiz-adv-x="1024" />
      
      <glyph glyph-name="xuexi" unicode="&#59550;" d="M364.288 799.744a138.24 138.24 0 0 0 51.3024-9.8816l71.68-28.672a66.56 66.56 0 0 1 49.408 0l71.68 28.672a138.24 138.24 0 0 0 51.3536 9.8816H768a189.44 189.44 0 0 0 189.44-189.44v-409.6a189.44 189.44 0 0 0-189.44-189.44h-108.288c-8.448 0-16.896-1.6384-24.7296-4.7616l-71.68-28.672a138.24 138.24 0 0 0-102.656 0l-71.68 28.672a66.4576 66.4576 0 0 1-24.6784 4.7616H256a189.44 189.44 0 0 0-189.44 189.44v409.6A189.44 189.44 0 0 0 256 799.744h108.288zM256 728.064a117.76 117.76 0 0 1-117.76-117.76v-409.6a117.76 117.76 0 0 1 117.76-117.76h108.288a138.24 138.24 0 0 0 51.3024-9.8816l71.68-28.672c15.872-6.3488 33.5872-6.3488 49.408 0l71.68 28.672a138.24 138.24 0 0 0 51.3536 9.8816H768a117.76 117.76 0 0 1 117.76 117.76v409.6a117.76 117.76 0 0 1-117.76 117.76h-108.288a66.56 66.56 0 0 1-24.7296-4.7616l-71.68-28.672a138.24 138.24 0 0 0-102.656 0l-71.68 28.672a66.56 66.56 0 0 1-24.6784 4.7616H256z m256-220.16a35.84 35.84 0 0 0 35.84-35.84v-184.32a35.84 35.84 0 0 0-71.68 0v184.32a35.84 35.84 0 0 0 35.84 35.84z"  horiz-adv-x="1024" />
      
      <glyph glyph-name="zuoduiqi" unicode="&#59548;" d="M768 72.533333a29.866667 29.866667 0 0 0 0-59.733333H128a29.866667 29.866667 0 0 0 0 59.733333h640zM640 413.866667a29.866667 29.866667 0 0 0 0-59.733334H128a29.866667 29.866667 0 0 0 0 59.733334h512zM896 755.2a29.866667 29.866667 0 0 0 0-59.733333H128a29.866667 29.866667 0 0 0 0 59.733333h768z"  horiz-adv-x="1024" />
      
      <glyph glyph-name="liangduanduiqi" unicode="&#59543;" d="M896 72.533333a29.866667 29.866667 0 0 0 0-59.733333H128a29.866667 29.866667 0 0 0 0 59.733333h768zM896 413.866667a29.866667 29.866667 0 0 0 0-59.733334H128a29.866667 29.866667 0 0 0 0 59.733334h768zM896 755.2a29.866667 29.866667 0 0 0 0-59.733333H128a29.866667 29.866667 0 0 0 0 59.733333h768z"  horiz-adv-x="1024" />
      
      <glyph glyph-name="youduiqi" unicode="&#59544;" d="M896 72.533333a29.866667 29.866667 0 0 0 0-59.733333H256a29.866667 29.866667 0 0 0 0 59.733333h640zM896 413.866667a29.866667 29.866667 0 0 0 0-59.733334H384a29.866667 29.866667 0 0 0 0 59.733334h512zM896 755.2a29.866667 29.866667 0 0 0 0-59.733333H128a29.866667 29.866667 0 0 0 0 59.733333h768z"  horiz-adv-x="1024" />
      
      <glyph glyph-name="ziti" unicode="&#59545;" d="M312.874667 746.666667c24.234667 0 45.824-15.445333 53.632-38.4l219.861333-647.424a29.866667 29.866667 0 0 0-56.490667-19.541334l-80 226.901334H170.154667l-75.562667-226.56a29.696 29.696 0 1 0-56.277333 18.986666L259.285333 708.266667A56.618667 56.618667 0 0 0 312.874667 746.666667z m11.349333-106.709334c-3.925333 11.648-20.650667 11.690667-24.661333 0.042667-17.024-49.749333-49.493333-143.36-97.493334-280.746667l-14.08-39.424h244.992l-14.08 40.362667L324.266667 640zM812.544 509.44c116.394667 0 174.549333-61.013333 174.592-183.04v-271.744a28.586667 28.586667 0 1 0-57.258667 0v26.752c-26.282667-40.064-71.978667-60.074667-137.045333-60.074667-43.818667 0-79.786667 12.842667-107.946667 38.485334-27.52 26.282667-41.301333 59.733333-41.301333 100.437333 0 45.653333 17.536 81.066667 52.565333 106.069333 35.669333 25.642667 82.602667 38.485333 140.8 38.485334h92.928v21.589333c0 42.538667-9.088 74.453333-27.221333 95.744-18.133333 21.888-48.469333 32.853333-91.050667 32.853333-32.64 0-63.146667-5.888-91.434666-17.621333-18.730667-7.765333-41.813333 4.736-41.813334 25.002667a23.466667 23.466667 0 0 0 12.373334 21.12c33.92 17.28 74.538667 25.898667 121.813333 25.898666z m24.405333-257.194667c-44.416 0-77.610667-8.746667-99.498666-26.282666-21.888-16.896-32.853333-38.186667-32.853334-63.829334 0-26.282667 8.448-47.573333 25.344-63.829333 17.493333-16.256 42.88-24.405333 76.032-24.405333 37.546667 0 67.584 10.325333 90.112 30.976s33.792 46.933333 33.792 78.848v68.522666h-92.928z"  horiz-adv-x="1024" />
      
      <glyph glyph-name="juzhongduiqi" unicode="&#59546;" d="M832 72.533333a29.866667 29.866667 0 0 0 0-59.733333h-640a29.866667 29.866667 0 0 0 0 59.733333h640zM768 413.866667a29.866667 29.866667 0 0 0 0-59.733334H256a29.866667 29.866667 0 0 0 0 59.733334h512zM896 755.2a29.866667 29.866667 0 0 0 0-59.733333H128a29.866667 29.866667 0 0 0 0 59.733333h768z"  horiz-adv-x="1024" />
      
      <glyph glyph-name="liebiao" unicode="&#59547;" d="M145.066667 85.333333a42.666667 42.666667 0 1 0 0-85.333333 42.666667 42.666667 0 0 0 0 85.333333z m746.666666-12.8a29.866667 29.866667 0 0 0 0-59.733333h-597.333333a29.866667 29.866667 0 0 0 0 59.733333h597.333333zM145.066667 426.666667a42.666667 42.666667 0 1 0 0-85.333334 42.666667 42.666667 0 0 0 0 85.333334z m746.666666-12.8a29.866667 29.866667 0 0 0 0-59.733334h-597.333333a29.866667 29.866667 0 0 0 0 59.733334h597.333333zM145.066667 768a42.666667 42.666667 0 1 0 0-85.333333 42.666667 42.666667 0 0 0 0 85.333333z m746.666666-12.8a29.866667 29.866667 0 0 0 0-59.733333h-597.333333a29.866667 29.866667 0 0 0 0 59.733333h597.333333z"  horiz-adv-x="1024" />
      
      <glyph glyph-name="cebianlan" unicode="&#59541;" d="M716.8 803.84a240.64 240.64 0 0 0 240.64-240.64v-358.4a240.64 240.64 0 0 0-240.64-240.64H307.2a240.64 240.64 0 0 0-240.64 240.64v358.4A240.64 240.64 0 0 0 307.2 803.84h409.6z m-337.92-768H716.8a168.96 168.96 0 0 1 168.96 168.96v358.4A168.96 168.96 0 0 1 716.8 732.16H378.88v-696.32zM307.2 732.16a168.96 168.96 0 0 1-168.96-168.96v-358.4A168.96 168.96 0 0 1 307.2 35.84V732.16z"  horiz-adv-x="1024" />
      
      <glyph glyph-name="fanhuidingbu" unicode="&#59540;" d="M486.7072 461.056a35.84 35.84 0 0 0 50.688 0l311.3472-311.3472a35.84 35.84 0 0 0-50.688-50.688l-285.7984 285.8496-286.0032-286.0032a35.84 35.84 0 0 0-50.688 50.688l309.6576 309.6576c0.512 0.5632 0.9216 1.28 1.4848 1.8432zM834.56 691.2a35.84 35.84 0 0 0 0-71.68H189.44a35.84 35.84 0 0 0 0 71.68h645.12z"  horiz-adv-x="1024" />
      
      <glyph glyph-name="APPxiazai" unicode="&#59539;" d="M512 153.6a51.2 51.2 0 1 0 0-102.4 51.2 51.2 0 0 0 0 102.4zM716.8 829.44A189.44 189.44 0 0 0 906.24 640v-512a189.44 189.44 0 0 0-189.44-189.44H307.2A189.44 189.44 0 0 0 117.76 128V640A189.44 189.44 0 0 0 307.2 829.44h409.6zM189.44 128A117.76 117.76 0 0 1 307.2 10.24h409.6a117.76 117.76 0 0 1 117.76 117.76v66.56H189.44V128zM307.2 757.76A117.76 117.76 0 0 1 189.44 640v-373.76h645.12V640A117.76 117.76 0 0 1 716.8 757.76H307.2z"  horiz-adv-x="1024" />
      
      <glyph glyph-name="quanzi_fuben2" unicode="&#59538;" d="M512 829.44a445.44 445.44 0 1 0 0-890.88 445.44 445.44 0 0 0 0 890.88z m0-71.68a373.76 373.76 0 1 1 0-747.52 373.76 373.76 0 0 1 0 747.52z m0-184.32a189.44 189.44 0 1 0 0-378.88 189.44 189.44 0 0 0 0 378.88z m0-71.68a117.76 117.76 0 1 1 0-235.52 117.76 117.76 0 0 1 0 235.52z"  horiz-adv-x="1024" />
      
      <glyph glyph-name="lianjie1" unicode="&#59537;" d="M160.768 517.9392a35.84 35.84 0 0 0 50.7392-50.688 271.36 271.36 0 1 1 383.744-383.744 35.84 35.84 0 0 0 50.688-50.688 343.04 343.04 0 0 0-485.12 485.12zM378.0608 735.1808a343.04 343.04 0 0 0 485.12-485.1712 35.84 35.84 0 0 0-50.688 50.688A271.36 271.36 0 1 1 428.7488 684.544a35.84 35.84 0 0 0-50.688 50.688zM569.9072 492.5952a35.84 35.84 0 0 0 50.688-50.688L454.144 275.4048a35.84 35.84 0 0 0-50.688 50.688L569.856 492.544z"  horiz-adv-x="1024" />
      
      <glyph glyph-name="aituijian" unicode="&#59535;" d="M601.088 607.232a26.8288 26.8288 0 0 0 17.3568-16.896l69.12-207.9744 216.2176-75.7248a26.7264 26.7264 0 0 0 17.8176-25.7024 26.2144 26.2144 0 0 0-19.4048-24.576l-211.7632-58.7264-65.536-204.9024a26.4704 26.4704 0 0 0-25.344-18.3296 26.9824 26.9824 0 0 0-25.5488 18.1248L504.832 200.448l-209.8176 65.7408a26.7264 26.7264 0 0 0-18.5344 24.9344 26.1632 26.1632 0 0 0 18.1248 25.1904l207.4624 68.9664 65.536 204.8a26.4704 26.4704 0 0 0 13.1584 15.4112 27.0336 27.0336 0 0 0 20.3776 1.792zM307.3024 792.6784a18.688 18.688 0 0 0 11.9296-12.032l39.424-124.4672 129.6384-43.4176a18.6368 18.6368 0 0 0 12.8512-17.8688 18.2784 18.2784 0 0 0-13.568-17.408l-129.0752-37.888-42.1888-125.0304a18.432 18.432 0 0 0-17.8688-12.6464 18.8416 18.8416 0 0 0-17.664 12.9536l-39.424 124.5184-125.5936 37.4272A18.688 18.688 0 0 0 102.4 594.0736a18.2784 18.2784 0 0 0 12.544 17.8176l126.6176 43.9296 42.0352 125.1328a18.3808 18.3808 0 0 0 9.3696 10.7008 18.8416 18.8416 0 0 0 14.336 1.024z"  horiz-adv-x="1024" />
      
      <glyph glyph-name="taxue-1" unicode="&#59534;" d="M347.178667 768c37.845333 0 74.88-10.794667 106.368-31.018667l34.56-22.186666c14.506667-9.216 33.28-9.216 47.786666 0l34.56 22.186666A197.290667 197.290667 0 0 0 676.821333 768h69.973334C852.778667 768 938.666667 685.397333 938.666667 583.509333v-338.944c0-101.888-85.930667-184.490667-191.829334-184.490666h-69.973333c-23.978667 0-47.445333-6.826667-67.370667-19.626667l-34.56-22.101333a117.248 117.248 0 0 0-125.866666 0l-34.56 22.101333a124.885333 124.885333 0 0 1-67.328 19.626667h-69.973334C171.221333 60.074667 85.333333 142.677333 85.333333 244.565333V583.509333C85.333333 685.397333 171.264 768 277.162667 768h69.973333z m174.805333-276.693333c-2.090667 5.888-19.370667 6.229333-21.888 0.469333-20.096-46.677333-59.008-81.749333-87.04-98.688-6.144-3.712-6.144-14.634667 0-18.346667 28.032-16.938667 66.944-51.968 87.04-98.645333 2.474667-5.76 19.797333-5.461333 21.888 0.426667 11.818667 33.365333 36.48 74.325333 88.32 99.413333 6.485333 3.114667 6.485333 12.885333 0 16.042667-51.84 25.045333-76.544 65.962667-88.32 99.328z"  horiz-adv-x="1024" />
      
      <glyph glyph-name="bendiwenjianjia" unicode="&#59530;" d="M392.5504 778.24a87.04 87.04 0 0 0 52.224-17.408l75.0592-56.32a15.36 15.36 0 0 1 9.216-3.072H768a189.44 189.44 0 0 0 189.44-189.44V179.2a189.44 189.44 0 0 0-189.44-189.44H256A189.44 189.44 0 0 0 66.56 179.2V588.8A189.44 189.44 0 0 0 256 778.24h136.5504zM256 706.56A117.76 117.76 0 0 1 138.24 588.8v-409.6A117.76 117.76 0 0 1 256 61.44h512a117.76 117.76 0 0 1 117.76 117.76V512A117.76 117.76 0 0 1 768 629.76h-238.9504a87.04 87.04 0 0 0-52.224 17.408l-75.0592 56.32a15.36 15.36 0 0 1-9.216 3.072H256z m424.96-455.68a35.84 35.84 0 0 0 0-71.68H343.04a35.84 35.84 0 0 0 0 71.68h337.92z"  horiz-adv-x="1024" />
      
      <glyph glyph-name="bianji1" unicode="&#59529;" d="M486.4 803.84a35.84 35.84 0 0 0 0-71.68h-153.6a168.96 168.96 0 0 1-168.96-168.96v-358.4a168.96 168.96 0 0 1 168.96-168.96h358.4a168.96 168.96 0 0 1 168.96 168.96v153.6a35.84 35.84 0 0 0 71.68 0v-153.6a240.64 240.64 0 0 0-240.64-240.64h-358.4a240.64 240.64 0 0 0-240.64 240.64v358.4a240.64 240.64 0 0 0 240.64 240.64h153.6zM855.808 742.656a35.84 35.84 0 0 0 50.688-50.688l-456.192-456.192a35.84 35.84 0 0 0-50.688 50.688l456.192 456.192z"  horiz-adv-x="1024" />
      
      <glyph glyph-name="gouxuan2" unicode="&#59532;" d="M175.36 409.3952a35.84 35.84 0 0 1 0-50.688l201.0112-201.0624c0.512-0.5632 0.9728-1.28 1.536-1.8432a35.84 35.84 0 0 1 50.688 0l419.9424 419.9424a35.84 35.84 0 0 1-50.688 50.688L403.456 232.0384 226.048 409.3952a35.84 35.84 0 0 1-50.688 0z"  horiz-adv-x="1024" />
      
      <glyph glyph-name="daorubiji" unicode="&#59531;" d="M724.48 829.44a240.64 240.64 0 0 0 240.64-240.64v-409.6a240.64 240.64 0 0 0-240.64-240.64h-358.4a240.64 240.64 0 0 0-240.64 240.64v40.96h-30.72a35.84 35.84 0 0 0 0 71.68h30.72V476.16h-30.72a35.84 35.84 0 0 0 0 71.68h30.72V588.8a240.64 240.64 0 0 0 240.64 240.64h358.4z m-358.4-71.68A168.96 168.96 0 0 1 197.12 588.8v-40.96h30.72a35.84 35.84 0 0 0 0-71.68h-30.72v-184.32h30.72a35.84 35.84 0 0 0 0-71.68h-30.72v-40.96a168.96 168.96 0 0 1 168.96-168.96h358.4a168.96 168.96 0 0 1 168.96 168.96V588.8a168.96 168.96 0 0 1-168.96 168.96h-358.4z m394.24-220.16a35.84 35.84 0 0 0 35.84-35.84v-235.52a35.84 35.84 0 0 0-71.68 0V501.76a35.84 35.84 0 0 0 35.84 35.84z"  horiz-adv-x="1024" />
      
      <glyph glyph-name="a-" unicode="&#59533;" d="M512 793.6a409.6 409.6 0 1 0 0-819.2 409.6 409.6 0 0 0 0 819.2z m0-204.8a35.84 35.84 0 0 1-35.84-35.84v-133.12H343.04a35.84 35.84 0 0 1 0-71.68h133.12v-133.12a35.84 35.84 0 0 1 71.68 0v133.12h133.12a35.84 35.84 0 0 1 0 71.68h-133.12V552.96A35.84 35.84 0 0 1 512 588.8z"  horiz-adv-x="1024" />
      
      <glyph glyph-name="tupian1" unicode="&#59528;" d="M716.8 803.84a240.64 240.64 0 0 0 240.64-240.64v-358.4a240.64 240.64 0 0 0-240.64-240.64H307.2a240.64 240.64 0 0 0-240.64 240.64v358.4A240.64 240.64 0 0 0 307.2 803.84h409.6z m-0.8192-481.28c-87.0912 0-165.2224-21.1456-222.8736-54.4256-58.1632-33.536-91.904-77.056-99.4304-120.6272 0-0.4096-0.256-0.8192-0.3072-1.2288a35.6352 35.6352 0 0 0-15.872-22.8352c-0.512-0.3072-0.9728-0.8192-1.536-1.1264-0.4608-0.256-1.024-0.3584-1.536-0.6144a35.6864 35.6864 0 0 0-20.992-3.4816l-1.1264 0.0512-1.28 0.3584a36.2496 36.2496 0 0 0-22.6304 15.616c-0.3584 0.5632-0.8704 1.1264-1.2288 1.7408-26.3168 46.6944-90.0608 84.1216-169.8816 84.1728-6.4 0-12.8-0.3072-19.0464-0.768v-14.592A168.96 168.96 0 0 1 307.2 35.84h409.6a168.96 168.96 0 0 1 168.96 168.96v88.32c-49.152 18.5856-107.2128 29.44-169.7792 29.44zM307.2 732.16a168.96 168.96 0 0 1-168.96-168.96v-271.9744c6.2976 0.4096 12.6464 0.6144 19.0464 0.6144 73.216 0 141.5168-25.1904 189.184-67.6864 24.2176 42.8032 63.5904 78.848 110.848 106.0864 69.8368 40.2944 160.6144 64 258.6624 64 60.5184 0 118.1184-9.0112 169.7792-25.2928V563.2A168.96 168.96 0 0 1 716.8 732.16H307.2z m25.6-81.92a112.64 112.64 0 1 0 0-225.28 112.64 112.64 0 0 0 0 225.28z m0-71.68a40.96 40.96 0 1 1 0-81.92 40.96 40.96 0 0 1 0 81.92z"  horiz-adv-x="1024" />
      
      <glyph glyph-name="paizhao" unicode="&#59527;" d="M512 522.24a189.44 189.44 0 1 0 0-378.88 189.44 189.44 0 0 0 0 378.88z m0-71.68a117.76 117.76 0 1 1 0-235.52 117.76 117.76 0 0 1 0 235.52zM572.0064 803.84a138.24 138.24 0 0 0 97.792-40.448l57.344-57.4464a15.36 15.36 0 0 1 10.8544-4.5056H768a189.44 189.44 0 0 0 189.44-189.44v-358.4a189.44 189.44 0 0 0-189.44-189.44H256a189.44 189.44 0 0 0-189.44 189.44v358.4A189.44 189.44 0 0 0 256 701.44h30.0032a15.36 15.36 0 0 1 10.8544 4.5056l57.344 57.3952a138.24 138.24 0 0 0 97.792 40.4992h120.0128zM451.9936 732.16a66.56 66.56 0 0 1-47.0528-19.5072L347.648 655.2576a87.04 87.04 0 0 0-61.5936-25.4976H256a117.76 117.76 0 0 1-117.76-117.76v-358.4A117.76 117.76 0 0 1 256 35.84h512a117.76 117.76 0 0 1 117.76 117.76v358.4A117.76 117.76 0 0 1 768 629.76h-30.0032a87.04 87.04 0 0 0-61.5424 25.4976L619.008 712.6528a66.56 66.56 0 0 1-47.104 19.456H452.0448z"  horiz-adv-x="1024" />
      
      <glyph glyph-name="xinjianwenjianjia" unicode="&#59526;" d="M392.5504 778.24a87.04 87.04 0 0 0 52.224-17.408l75.0592-56.32a15.36 15.36 0 0 1 9.216-3.072H768a189.44 189.44 0 0 0 189.44-189.44V435.2a35.84 35.84 0 0 0-71.68 0V512A117.76 117.76 0 0 1 768 629.76h-238.9504a87.04 87.04 0 0 0-52.224 17.408l-75.0592 56.32a15.36 15.36 0 0 1-9.216 3.072H256A117.76 117.76 0 0 1 138.24 588.8v-409.6A117.76 117.76 0 0 1 256 61.44h256a35.84 35.84 0 0 0 0-71.68H256A189.44 189.44 0 0 0 66.56 179.2V588.8A189.44 189.44 0 0 0 256 778.24h136.5504z m411.2896-481.28a35.84 35.84 0 0 0 35.84-35.84V179.2H921.6a35.84 35.84 0 0 0 0-71.68h-81.92V25.6a35.84 35.84 0 0 0-71.68 0v81.92h-81.92a35.84 35.84 0 0 0 0 71.68H768v81.92a35.84 35.84 0 0 0 35.84 35.84z"  horiz-adv-x="1024" />
      
      <glyph glyph-name="qingkongduihua" unicode="&#59525;" d="M553.1136 842.24a87.04 87.04 0 0 0 87.04-87.04v-117.76h134.2976a87.04 87.04 0 0 0 80.7936-54.6816l61.44-153.6a86.9888 86.9888 0 0 0-53.248-114.7392c42.9056-110.848 26.624-227.6352 2.9184-304.5376-16.9472-54.9888-69.3248-84.1216-120.5248-84.1216H159.9488c-30.1056 0-48.128 22.1696-54.9888 40.0384-6.8096 17.92-7.68 43.5712 8.5504 64l6.144 8.0896c29.7472 41.3184 47.9232 95.8464 57.6512 151.6032 8.1408 46.4896 10.0352 91.648 8.8576 126.7712A87.0912 87.0912 0 0 0 138.24 429.1584l61.44 153.6A87.04 87.04 0 0 0 280.576 637.44h108.6976v117.76a87.04 87.04 0 0 0 87.04 87.04h76.8zM258.048 309.76c0.768-38.2464-1.7408-84.8384-10.0864-132.6592-10.5984-60.672-31.232-126.3616-69.12-179.6608h132.096c41.3184 33.6384 62.976 101.0688 62.976 168.96a35.84 35.84 0 0 0 71.68 0c0-54.1696-11.9296-117.5552-42.3424-168.96h138.0864c41.3184 33.6384 62.976 101.0688 62.976 168.96a35.84 35.84 0 0 0 71.68 0c0-54.1696-11.9296-117.5552-42.3424-168.96h112.128c26.368 0 46.1824 14.4896 52.0704 33.5872 23.04 74.8032 35.4304 183.3472-10.3936 278.7328H258.048z m218.2656 460.8a15.36 15.36 0 0 1-15.36-15.36v-153.6a35.84 35.84 0 0 0-35.84-35.84H280.576a15.36 15.36 0 0 1-14.2848-9.6768l-61.44-153.6a15.36 15.36 0 0 1 14.2336-20.992h616.8064a15.36 15.36 0 0 1 14.2848 20.992l-61.44 153.6a15.36 15.36 0 0 1-14.2848 9.6768h-170.1376a35.84 35.84 0 0 0-35.84 35.84v153.6a15.36 15.36 0 0 1-15.36 15.36h-76.8z"  horiz-adv-x="1024" />
      
      <glyph glyph-name="jiazhishiku" unicode="&#59524;" d="M604.16-10.24a35.84 35.84 0 0 0 0-71.68H419.84a35.84 35.84 0 0 0 0 71.68h184.32z m51.2 128a35.84 35.84 0 0 0 0-71.68H368.64a35.84 35.84 0 0 0 0 71.68h286.72zM512 849.92a419.84 419.84 0 0 0 279.9104-732.8256 35.84 35.84 0 0 0-47.8208 53.4528 348.16 348.16 0 1 1-464.1792 0 35.84 35.84 0 0 0-47.8208-53.4016A419.84 419.84 0 0 0 512 849.92z m0-230.4a35.84 35.84 0 0 0 35.84-35.84v-107.52h107.52a35.84 35.84 0 0 0 0-71.68h-107.52v-107.52a35.84 35.84 0 0 0-71.68 0V404.48H368.64a35.84 35.84 0 0 0 0 71.68h107.52V583.68a35.84 35.84 0 0 0 35.84 35.84z"  horiz-adv-x="1024" />
      
      <glyph glyph-name="chengyuan" unicode="&#59523;" d="M417.28 829.44a266.24 266.24 0 0 0 146.0224-488.8576A394.24 394.24 0 0 0 811.52-25.6a35.84 35.84 0 0 0-71.68 0 322.56 322.56 0 1 1-645.12 0 35.84 35.84 0 0 0-71.68 0 394.2912 394.2912 0 0 0 248.2176 366.1824A266.24 266.24 0 0 0 417.28 829.44z m286.464-53.248a223.0784 223.0784 0 0 0 192.6144-220.9792c0-71.3216-33.5872-134.656-85.6064-175.4624a327.0656 327.0656 0 0 0 189.5936-296.8064 35.84 35.84 0 0 0-71.68 0 255.4368 255.4368 0 0 1-210.432 251.392 35.7888 35.7888 0 0 0-29.3888 37.376 35.84 35.84 0 0 0 25.856 37.8368 151.3984 151.3984 0 0 1-20.6336 295.5776 35.84 35.84 0 0 0 9.6768 71.0144zM417.28 757.76a194.56 194.56 0 1 1 0-389.12 194.56 194.56 0 0 1 0 389.12z"  horiz-adv-x="1024" />
      
      <glyph glyph-name="tianjianeirong" unicode="&#59522;" d="M716.8 829.44A189.44 189.44 0 0 0 906.24 640v-256a35.84 35.84 0 0 0-71.68 0V640A117.76 117.76 0 0 1 716.8 757.76H419.84v-194.56a87.04 87.04 0 0 0-87.04-87.04H189.44V128A117.76 117.76 0 0 1 307.2 10.24h204.8a35.84 35.84 0 0 0 0-71.68H307.2A189.44 189.44 0 0 0 117.76 128V493.7216c0 20.0704 6.9632 39.5776 19.712 55.1424l203.4176 248.6272A87.04 87.04 0 0 0 408.2688 829.44H716.8z m35.84-583.68a35.84 35.84 0 0 0 35.84-35.84V128H870.4a35.84 35.84 0 0 0 0-71.68h-81.92V-25.6a35.84 35.84 0 0 0-71.68 0v81.92h-81.92a35.84 35.84 0 0 0 0 71.68H716.8v81.92a35.84 35.84 0 0 0 35.84 35.84zM229.2224 547.84H332.8a15.36 15.36 0 0 1 15.36 15.36V693.248L229.2224 547.84z"  horiz-adv-x="1024" />
      
      <glyph glyph-name="faxian" unicode="&#59521;" d="M659.456 600.7808c44.6464 12.8 86.8352-33.4848 65.9968-78.1824l-98.6624-211.3536a87.04 87.04 0 0 0-42.0352-42.0352L373.4016 170.496c-47.616-22.2208-97.0752 27.1872-74.8544 74.8544l98.6624 211.3536a87.04 87.04 0 0 0 42.0352 42.0352l211.3536 98.6624 8.9088 3.328z m-189.8496-166.912a15.4624 15.4624 0 0 1-7.4752-7.4752L381.3376 253.44l173.056 80.7424a15.5136 15.5136 0 0 1 7.4752 7.4752l80.7424 173.056-173.056-80.7936zM512 829.44a445.44 445.44 0 1 0 0-890.88 445.44 445.44 0 0 0 0 890.88z m0-71.68a373.76 373.76 0 1 1 0-747.52 373.76 373.76 0 0 1 0 747.52z"  horiz-adv-x="1024" />
      
      <glyph glyph-name="gongxiangzhishiku" unicode="&#59520;" d="M766.1056 285.952a35.84 35.84 0 0 0 50.688 0L947.2 155.648a35.7888 35.7888 0 0 0 9.7792-32.2048c-0.1536-0.768-0.512-1.536-0.6656-2.304a35.584 35.584 0 0 0-9.1136-16.1792l-130.3552-130.3552a35.8912 35.8912 0 0 0-50.688 50.688l69.376 69.4272H640a35.8912 35.8912 0 0 0 0 71.68h195.0208l-68.9152 68.864a35.8912 35.8912 0 0 0 0 50.688zM382.208 803.84a87.04 87.04 0 0 0 72.3968-38.7584l71.9872-107.9808a15.36 15.36 0 0 1 12.8-6.8608H819.2a138.24 138.24 0 0 0 138.24-138.24V435.2a35.84 35.84 0 0 0-71.68 0V512A66.56 66.56 0 0 1 819.2 578.56h-279.808a87.04 87.04 0 0 0-72.3968 38.7584L395.008 725.2992a15.4112 15.4112 0 0 1-12.8 6.8608H204.8a66.56 66.56 0 0 1-66.56-66.56v-563.2A66.56 66.56 0 0 1 204.8 35.84h204.8a35.84 35.84 0 0 0 0-71.68H204.8a138.24 138.24 0 0 0-138.24 138.24v563.2A138.24 138.24 0 0 0 204.8 803.84h177.408z"  horiz-adv-x="1024" />
      
      <glyph glyph-name="gerenzhishiku" unicode="&#59519;" d="M382.208 803.84a87.04 87.04 0 0 0 72.3968-38.7584l71.9872-107.9808a15.36 15.36 0 0 1 12.8-6.8608H819.2a138.24 138.24 0 0 0 138.24-138.24V435.2a35.84 35.84 0 0 0-71.68 0V512A66.56 66.56 0 0 1 819.2 578.56h-279.808a87.04 87.04 0 0 0-72.3968 38.7584L395.008 725.2992a15.4112 15.4112 0 0 1-12.8 6.8608H204.8a66.56 66.56 0 0 1-66.56-66.56v-563.2A66.56 66.56 0 0 1 204.8 35.84h204.8a35.84 35.84 0 0 0 0-71.68H204.8a138.24 138.24 0 0 0-138.24 138.24v563.2A138.24 138.24 0 0 0 204.8 803.84h177.408zM768 112.64c74.5472 0 140.8-35.84 182.272-91.136a35.84 35.84 0 1 0-57.344-43.008A155.8528 155.8528 0 0 1 768 40.96c-51.0464 0-96.4096-24.4736-124.928-62.464a35.84 35.84 0 0 0-57.344 43.008A227.584 227.584 0 0 0 768 112.64zM768 368.64a112.64 112.64 0 1 0 0-225.28 112.64 112.64 0 0 0 0 225.28z m0-71.68a40.96 40.96 0 1 1 0-81.92 40.96 40.96 0 0 1 0 81.92z"  horiz-adv-x="1024" />
      
      <glyph glyph-name="sousuobuqi" unicode="&#59518;" d="M224 128a32 32 0 0 1 32-32h288a32 32 0 0 1 0 64h-256v256a32 32 0 0 1-64 0V128z m566.656 489.344a32 32 0 0 1-45.312 45.312L768 640l22.656-22.656zM256 128l22.656-22.656 512 512L768 640l-22.656 22.656-512-512L256 128z"  horiz-adv-x="1024" />
      
      <glyph glyph-name="tingzhi" unicode="&#59517;" d="M512 896c282.752 0 512-229.248 512-512s-229.248-512-512-512S0 101.248 0 384 229.248 896 512 896z m-42.666667-298.666667a170.666667 170.666667 0 0 1-170.666666-170.666666v-85.333334a170.666667 170.666667 0 0 1 170.666666-170.666666h85.333334a170.666667 170.666667 0 0 1 170.666666 170.666666v85.333334a170.666667 170.666667 0 0 1-170.666666 170.666666h-85.333334z"  horiz-adv-x="1024" />
      
      <glyph glyph-name="fasong" unicode="&#59516;" d="M512 896c282.752 0 512-229.248 512-512s-229.248-512-512-512S0 101.248 0 384 229.248 896 512 896z m24.405333-259.754667a34.133333 34.133333 0 0 1-45.653333 2.389334l-2.645333-2.389334-193.066667-193.066666a34.133333 34.133333 0 0 1 48.213333-48.256l135.253334 135.210666v-374.186666a34.133333 34.133333 0 0 1 68.266666 0V529.322667l134.485334-134.442667a34.133333 34.133333 0 0 1 48.213333 48.213333l-193.066667 193.109334z"  horiz-adv-x="1024" />
      
      <glyph glyph-name="shanchu1" unicode="&#59512;" d="M512 384m-512 0a512 512 0 1 1 1024 0 512 512 0 1 1-1024 0ZM744.727273 570.181818h-209.454546v23.272727c0 13.963636-9.309091 23.272727-23.272727 23.272728s-23.272727-9.309091-23.272727-23.272728v-23.272727h-209.454546c-13.963636 0-23.272727-9.309091-23.272727-23.272727s9.309091-23.272727 23.272727-23.272727h23.272728v-302.545455c0-51.2 41.890909-93.090909 93.090909-93.090909h232.727272c51.2 0 93.090909 41.890909 93.090909 93.090909V523.636364h23.272728c13.963636 0 23.272727 9.309091 23.272727 23.272727s-9.309091 23.272727-23.272727 23.272727z m-69.818182-349.090909c0-25.6-20.945455-46.545455-46.545455-46.545454H395.636364c-25.6 0-46.545455 20.945455-46.545455 46.545454V523.636364h325.818182v-302.545455zM442.181818 267.636364c13.963636 0 23.272727 9.309091 23.272727 23.272727v139.636364c0 13.963636-9.309091 23.272727-23.272727 23.272727s-23.272727-9.309091-23.272727-23.272727v-139.636364c0-13.963636 9.309091-23.272727 23.272727-23.272727zM581.818182 267.636364c13.963636 0 23.272727 9.309091 23.272727 23.272727v139.636364c0 13.963636-9.309091 23.272727-23.272727 23.272727s-23.272727-9.309091-23.272727-23.272727v-139.636364c0-13.963636 9.309091-23.272727 23.272727-23.272727z"  horiz-adv-x="1024" />
      
      <glyph glyph-name="sixinhaoyou1" unicode="&#59501;" d="M512 384m-512 0a512 512 0 1 1 1024 0 512 512 0 1 1-1024 0ZM698.181818 616.727273c51.2 0 93.090909-41.890909 93.090909-93.090909v-279.272728c0-51.2-41.890909-93.090909-93.090909-93.090909H325.818182c-51.2 0-93.090909 41.890909-93.090909 93.090909V523.636364c0 51.2 41.890909 93.090909 93.090909 93.090909h372.363636z m-27.927273-102.4c-6.981818 11.636364-20.945455 13.963636-32.581818 6.981818l-114.036363-76.8c-6.981818-4.654545-18.618182-4.654545-25.6 0l-114.036364 76.8c-11.636364 6.981818-25.6 4.654545-32.581818-6.981818-6.981818-11.636364-4.654545-25.6 6.981818-32.581818l114.036364-76.8c23.272727-16.290909 53.527273-16.290909 76.8 0l114.036363 76.8c11.636364 6.981818 13.963636 20.945455 6.981818 32.581818z"  horiz-adv-x="1024" />
      
      <glyph glyph-name="zhishiku" unicode="&#59502;" d="M512 384m-512 0a512 512 0 1 1 1024 0 512 512 0 1 1-1024 0ZM588.8 125.672727H423.563636c-2.327273 0-4.654545-2.327273-6.981818-4.654545 0 0-4.654545-4.654545-4.654545-6.981818v-18.618182c0-2.327273 2.327273-4.654545 4.654545-6.981818 0 0 4.654545-4.654545 6.981818-4.654546H598.109091c2.327273 0 4.654545 2.327273 6.981818 4.654546 0 0 4.654545 4.654545 4.654546 6.981818V104.727273v9.309091c0 2.327273-2.327273 4.654545-4.654546 6.981818 0 0-4.654545 4.654545-6.981818 4.654545h-9.309091zM744.727273 456.145455C744.727273 584.145455 640 686.545455 512 686.545455s-232.727273-102.4-232.727273-230.4 46.545455-160.581818 116.363637-200.145455v-37.236364c0-25.6 18.618182-44.218182 44.218181-44.218181h146.618182c23.272727 0 44.218182 20.945455 44.218182 44.218181v37.236364c69.818182 39.563636 116.363636 114.036364 116.363636 200.145455z"  horiz-adv-x="1024" />
      
      <glyph glyph-name="quanzi1" unicode="&#59503;" d="M512 384m-512 0a512 512 0 1 1 1024 0 512 512 0 1 1-1024 0ZM512 104.727273c-153.6 0-279.272727 125.672727-279.272727 279.272727s125.672727 279.272727 279.272727 279.272727 279.272727-125.672727 279.272727-279.272727-125.672727-279.272727-279.272727-279.272727z m0 465.454545c-102.4 0-186.181818-83.781818-186.181818-186.181818s83.781818-186.181818 186.181818-186.181818 186.181818 83.781818 186.181818 186.181818-83.781818 186.181818-186.181818 186.181818zM512 384m-93.090909 0a93.090909 93.090909 0 1 1 186.181818 0 93.090909 93.090909 0 1 1-186.181818 0Z"  horiz-adv-x="1024" />
      
      <glyph glyph-name="weixinhaoyou" unicode="&#59504;" d="M512 384m-512 0a512 512 0 1 1 1024 0 512 512 0 1 1-1024 0ZM640 472.436364c109.381818 0 197.818182-74.472727 197.818182-165.236364 0-53.527273-30.254545-100.072727-76.8-130.327273l18.618182-60.509091-72.145455 37.236364h-2.327273c-18.618182-4.654545-39.563636-9.309091-62.836363-9.309091-109.381818 0-197.818182 74.472727-197.818182 165.236364 0 90.763636 88.436364 165.236364 197.818182 165.236363zM418.909091 651.636364c116.363636 0 214.109091-72.145455 230.4-165.236364h-9.309091c-116.363636 0-211.781818-79.127273-211.781818-176.872727 0-16.290909 2.327273-32.581818 6.981818-46.545455H418.909091c-25.6 0-51.2 4.654545-74.472727 9.309091h-4.654546L256 230.4l23.272727 69.818182c-55.854545 34.909091-90.763636 90.763636-90.763636 153.6 0 107.054545 104.727273 195.490909 232.727273 195.490909z m153.6-260.654546c-16.290909 0-27.927273-11.636364-27.927273-25.6s11.636364-27.927273 27.927273-27.927273 27.927273 11.636364 27.927273 27.927273-11.636364 25.6-27.927273 25.6z m137.309091 0c-16.290909 0-27.927273-11.636364-27.927273-25.6 0-13.963636 11.636364-27.927273 27.927273-27.927273s27.927273 11.636364 27.927273 27.927273c0 13.963636-11.636364 25.6-27.927273 25.6z m-372.363637 165.236364c-18.618182 0-32.581818-13.963636-32.581818-32.581818 0-18.618182 13.963636-32.581818 32.581818-32.581819 18.618182 0 32.581818 13.963636 32.581819 32.581819s-13.963636 32.581818-32.581819 32.581818z m162.909091 0c-18.618182 0-32.581818-13.963636-32.581818-32.581818 0-18.618182 13.963636-32.581818 32.581818-32.581819 18.618182 0 32.581818 13.963636 32.581819 32.581819s-13.963636 32.581818-32.581819 32.581818z"  horiz-adv-x="1024" />
      
      <glyph glyph-name="pengyouquan" unicode="&#59505;" d="M512 384m-512 0a512 512 0 1 1 1024 0 512 512 0 1 1-1024 0ZM384 137.309091V421.236364l-132.654545-132.654546c23.272727-65.163636 72.145455-118.690909 132.654545-151.272727z m25.6 507.345454c-62.836364-25.6-114.036364-72.145455-144.290909-130.327272h279.272727l-132.654545 130.327272z m214.109091-4.654545c-34.909091 16.290909-72.145455 23.272727-111.709091 23.272727s-58.181818-4.654545-86.109091-13.963636l197.818182-197.818182V640z m18.618182-9.309091v-295.563636l137.309091 132.654545c-23.272727 69.818182-72.145455 128-137.309091 160.581818zM256 495.709091c-13.963636-34.909091-23.272727-72.145455-23.272727-111.709091s4.654545-53.527273 11.636363-79.127273l193.163637 190.836364H256z m525.963636-44.218182l-195.490909-190.836364h174.545455c18.618182 34.909091 30.254545 79.127273 30.254545 123.345455s-2.327273 46.545455-9.309091 67.490909zM458.472727 244.363636l-58.181818 58.181819v-176.872728c32.581818-16.290909 72.145455-23.272727 111.709091-23.272727 27.927273 0 53.527273 4.654545 76.8 11.636364L458.472727 244.363636z m146.618182-123.345454c62.836364 20.945455 114.036364 65.163636 146.618182 121.018182H481.745455c0 2.327273 123.345455-121.018182 123.345454-121.018182z"  horiz-adv-x="1024" />
      
      <glyph glyph-name="chakangengduo1" unicode="&#59506;" d="M512 384m-512 0a512 512 0 1 1 1024 0 512 512 0 1 1-1024 0ZM279.272727 430.545455c25.6 0 46.545455-20.945455 46.545455-46.545455s-20.945455-46.545455-46.545455-46.545455-46.545455 20.945455-46.545454 46.545455 20.945455 46.545455 46.545454 46.545455z m232.727273 0c25.6 0 46.545455-20.945455 46.545455-46.545455s-20.945455-46.545455-46.545455-46.545455-46.545455 20.945455-46.545455 46.545455 20.945455 46.545455 46.545455 46.545455z m232.727273 0c25.6 0 46.545455-20.945455 46.545454-46.545455s-20.945455-46.545455-46.545454-46.545455-46.545455 20.945455-46.545455 46.545455 20.945455 46.545455 46.545455 46.545455z"  horiz-adv-x="1024" />
      
      <glyph glyph-name="fuzhilianjie" unicode="&#59507;" d="M512 384m-512 0a512 512 0 1 1 1024 0 512 512 0 1 1-1024 0ZM677.236364 262.981818c-6.981818 0-11.636364 0-16.290909 6.981818-9.309091 9.309091-9.309091 23.272727 0 32.581819l32.581818 32.581818c62.836364 62.836364 62.836364 167.563636 0 230.4s-72.145455 46.545455-114.036364 46.545454-83.781818-16.290909-114.036364-46.545454l-32.581818-32.581818c-9.309091-9.309091-23.272727-9.309091-32.581818 0s-9.309091 23.272727 0 32.581818l32.581818 32.581818c39.563636 39.563636 90.763636 60.509091 148.945455 60.509091s109.381818-20.945455 148.945454-60.509091c81.454545-81.454545 81.454545-214.109091 0-295.563636L698.181818 269.963636c-4.654545-4.654545-11.636364-6.981818-16.290909-6.981818zM444.509091 109.381818c-53.527273 0-107.054545 20.945455-148.945455 60.509091-39.563636 39.563636-60.509091 90.763636-60.509091 148.945455s20.945455 109.381818 60.509091 148.945454l32.581819 32.581818c9.309091 9.309091 23.272727 9.309091 32.581818 0 9.309091-9.309091 9.309091-23.272727 0-32.581818l-32.581818-32.581818c-30.254545-30.254545-46.545455-72.145455-46.545455-114.036364s16.290909-83.781818 46.545455-114.036363c62.836364-62.836364 167.563636-62.836364 230.4 0l32.581818 32.581818c9.309091 9.309091 23.272727 9.309091 32.581818 0s9.309091-23.272727 0-32.581818L591.127273 174.545455c-41.890909-41.890909-95.418182-60.509091-148.945455-60.509091zM428.218182 276.945455c-6.981818 0-11.636364 0-16.290909 6.981818-9.309091 9.309091-9.309091 23.272727 0 32.581818l165.236363 165.236364c9.309091 9.309091 23.272727 9.309091 32.581819 0s9.309091-23.272727 0-32.581819l-165.236364-165.236363c-4.654545-4.654545-11.636364-6.981818-16.290909-6.981818z"  horiz-adv-x="1024" />
      
      <glyph glyph-name="buganxingqu" unicode="&#59508;" d="M512 384m-512 0a512 512 0 1 1 1024 0 512 512 0 1 1-1024 0ZM502.690909 102.4c-18.618182 0-37.236364 6.981818-51.2 20.945455-39.563636 44.218182-93.090909 100.072727-137.309091 144.290909-27.927273 27.927273-48.872727 53.527273-62.836363 67.490909-32.581818 34.909091-48.872727 93.090909-39.563637 151.272727 9.309091 51.2 37.236364 90.763636 76.8 111.709091 76.8 37.236364 153.6 6.981818 181.527273-13.963636 9.309091-6.981818 11.636364-16.290909 6.981818-27.927273l-32.581818-83.781818 67.490909-62.836364c4.654545-4.654545 6.981818-9.309091 6.981818-16.290909 0-6.981818-2.327273-11.636364-6.981818-16.290909l-27.927273-27.927273 48.872728-58.181818c9.309091-9.309091 6.981818-25.6-2.327273-32.581818-9.309091-9.309091-25.6-6.981818-32.581818 2.327272l-62.836364 74.472728c-6.981818 9.309091-6.981818 23.272727 0 32.581818l25.6 25.6-60.509091 58.181818c-6.981818 6.981818-9.309091 16.290909-4.654545 25.6l30.254545 79.127273c-25.6 13.963636-72.145455 23.272727-118.690909 0-37.236364-18.618182-48.872727-55.854545-51.2-76.8-6.981818-41.890909 4.654545-86.109091 25.6-111.709091 13.963636-13.963636 37.236364-39.563636 62.836364-67.490909 44.218182-46.545455 97.745455-102.4 137.309091-144.290909 9.309091-9.309091 25.6-9.309091 34.90909 0 51.2 51.2 116.363636 116.363636 160.581819 162.909091l48.872727 48.872727c20.945455 20.945455 48.872727 74.472727 39.563636 118.690909-6.981818 30.254545-27.927273 53.527273-65.163636 69.818182-86.109091 34.909091-139.636364-20.945455-162.909091-55.854546-6.981818-11.636364-20.945455-13.963636-32.581818-6.981818-11.636364 6.981818-13.963636 20.945455-6.981818 32.581818 18.618182 30.254545 93.090909 125.672727 218.763636 74.472728 65.163636-27.927273 86.109091-69.818182 93.090909-102.4 13.963636-67.490909-25.6-134.981818-51.2-160.581819l-48.872727-48.872727c-44.218182-46.545455-111.709091-111.709091-160.581818-162.909091-13.963636-13.963636-30.254545-20.945455-51.2-20.945454z"  horiz-adv-x="1024" />
      
      <glyph glyph-name="jubao1" unicode="&#59509;" d="M512 384m-512 0a512 512 0 1 1 1024 0 512 512 0 1 1-1024 0ZM439.854545 598.109091c32.581818 55.854545 111.709091 55.854545 141.963637 0l197.818182-344.436364c30.254545-55.854545-6.981818-125.672727-72.145455-125.672727H314.181818c-65.163636 0-102.4 69.818182-72.145454 125.672727l197.818181 344.436364z m102.4-23.272727c-13.963636 23.272727-48.872727 23.272727-62.836363 0l-197.818182-344.436364c-13.963636-25.6 4.654545-55.854545 30.254545-55.854545h393.309091c27.927273 0 44.218182 30.254545 30.254546 55.854545l-197.818182 344.436364zM512 267.636364c13.963636 0 23.272727-9.309091 23.272727-23.272728s-9.309091-23.272727-23.272727-23.272727-23.272727 9.309091-23.272727 23.272727 9.309091 23.272727 23.272727 23.272728z m0 209.454545c13.963636 0 23.272727-9.309091 23.272727-23.272727v-116.363637c0-13.963636-9.309091-23.272727-23.272727-23.272727s-23.272727 9.309091-23.272727 23.272727v116.363637c0 13.963636 9.309091 23.272727 23.272727 23.272727z"  horiz-adv-x="1024" />
      
      <glyph glyph-name="zhiding" unicode="&#59510;" d="M512 384m-512 0a512 512 0 1 1 1024 0 512 512 0 1 1-1024 0ZM698.181818 640H325.818182c-13.963636 0-23.272727-9.309091-23.272727-23.272727s9.309091-23.272727 23.272727-23.272728h372.363636c13.963636 0 23.272727 9.309091 23.272727 23.272728s-9.309091 23.272727-23.272727 23.272727zM528.290909 516.654545c-9.309091 9.309091-23.272727 9.309091-32.581818 0l-165.236364-165.236363c-9.309091-9.309091-9.309091-23.272727 0-32.581818s11.636364-6.981818 16.290909-6.981819 11.636364 0 16.290909 6.981819l125.672728 125.672727v-281.6c0-13.963636 9.309091-23.272727 23.272727-23.272727s23.272727 9.309091 23.272727 23.272727V444.509091l125.672728-125.672727c4.654545-4.654545 11.636364-6.981818 16.290909-6.981819s11.636364 0 16.290909 6.981819c9.309091 9.309091 9.309091 23.272727 0 32.581818l-165.236364 165.236363z"  horiz-adv-x="1024" />
      
      <glyph glyph-name="xinjianhuihua" unicode="&#59499;" d="M512 773.632a35.84 35.84 0 0 0 0-71.68H256a117.76 117.76 0 0 1-117.76-117.76v-518.1952a15.36 15.36 0 0 1 23.9616-12.8l95.744 64.512 4.608 2.56a35.84 35.84 0 0 0 15.36 3.5328H768a117.76 117.76 0 0 1 117.76 117.76V412.8768a35.84 35.84 0 0 0 71.68 0v-171.3152a189.44 189.44 0 0 0-189.44-189.44H288.9216l-86.7328-58.368c-57.8048-38.912-135.68 2.56-135.68 72.192V584.192A189.44 189.44 0 0 0 256 773.632h256zM768 788.992a35.84 35.84 0 0 0 35.84-35.84v-81.92h81.92a35.84 35.84 0 0 0 0-71.68h-81.92v-81.92a35.84 35.84 0 0 0-71.68 0v81.92h-81.92a35.84 35.84 0 0 0 0 71.68h81.92v81.92a35.84 35.84 0 0 0 35.84 35.84z"  horiz-adv-x="1024" />
      
      </font>
</defs>
</svg>
