<?xml version="1.0" standalone="no"?>
<!DOCTYPE svg PUBLIC "-//W3C//DTD SVG 1.1//EN" "http://www.w3.org/Graphics/SVG/1.1/DTD/svg11.dtd" >
<svg xmlns="http://www.w3.org/2000/svg">
  <metadata>Created by iconfont</metadata>
  <defs>
  <font id="iconfont" horiz-adv-x="1024">
    <font-face
      font-family="iconfont"
      font-weight="400"
      font-stretch="normal"
      units-per-em="1024"
      ascent="896"
      descent="-128"
    />
      <missing-glyph />
      
      <glyph glyph-name="lock-followers" unicode="&#58901;" d="M661.312 852.352a89.504 89.504 0 0 0 88.48-76.256 196.224 196.224 0 0 0 171.776-194.688v-362.56a110.944 110.944 0 0 0 85.312-107.936V0a110.944 110.944 0 0 0-110.912-110.976H682.624A110.4 110.4 0 0 0 610.4-84.16H298.624a196.256 196.256 0 0 0-196.256 196.256V581.408a196.256 196.256 0 0 0 171.744 194.688 89.536 89.536 0 0 0 88.512 76.256h298.688z m21.312-681.696c-32.96 0-59.744-26.752-59.744-59.744V0c0-32.96 26.752-59.744 59.744-59.744h213.344A59.776 59.776 0 0 1 955.712 0V110.912A59.744 59.744 0 0 1 896 170.656H682.656z m60.032 554.784a89.504 89.504 0 0 0-81.344-52.288H362.624c-36.16 0-67.2 21.44-81.376 52.288A145.088 145.088 0 0 1 153.6 581.408v-469.312a145.088 145.088 0 0 1 145.056-145.088h278.08A110.848 110.848 0 0 0 571.744 0V110.912a110.944 110.944 0 0 0 81.632 107.008c-28.672 35.424-80.064 60.928-141.376 60.928-97.504 0-166.4-62.368-166.4-128a25.6 25.6 0 1 0-51.2 0c0 75.52 54.368 135.808 128 163.2a140.8 140.8 0 1 0 179.36 0.032 221.248 221.248 0 0 0 70.08-41.472 128.032 128.032 0 0 0 198.56 48.256V581.44a145.088 145.088 0 0 1-127.712 144z m46.688-618.784a15.36 15.36 0 0 0 15.36-15.36v-71.68a15.36 15.36 0 0 0-30.72 0v71.68a15.36 15.36 0 0 0 15.36 15.36z m-0.032 192a76.864 76.864 0 0 1-76.832-76.8h153.6a76.8 76.8 0 0 1-76.768 76.8zM512 512.16a89.6 89.6 0 1 1 0-179.136 89.6 89.6 0 0 1 0 179.136zM362.624 801.152a38.4 38.4 0 0 1 0-76.8h298.688a38.4 38.4 0 0 1 0 76.8H362.624z"  horiz-adv-x="1024" />
      
      <glyph glyph-name="zuopinguanli" unicode="&#58900;" d="M716.8 803.84A189.44 189.44 0 0 0 906.24 614.4v-460.8A189.44 189.44 0 0 0 716.8-35.84H307.2A189.44 189.44 0 0 0 117.76 153.6V614.4A189.44 189.44 0 0 0 307.2 803.84h409.6z m-409.6-71.68A117.76 117.76 0 0 1 189.44 614.4v-460.8A117.76 117.76 0 0 1 307.2 35.84h409.6A117.76 117.76 0 0 1 834.56 153.6V614.4A117.76 117.76 0 0 1 716.8 732.16H307.2z m271.36-378.88a35.84 35.84 0 0 0 0-71.68H343.04a35.84 35.84 0 0 0 0 71.68h235.52z m102.4 204.8a35.84 35.84 0 0 0 0-71.68H343.04a35.84 35.84 0 0 0 0 71.68h337.92z"  horiz-adv-x="1024" />
      
      <glyph glyph-name="zhifubaozhifu" unicode="&#58897;" d="M204.8 896h614.4Q1024 896 1024 691.2v-614.4q0-204.8-204.8-204.8H204.8Q0-128 0 76.8V691.2Q0 896 204.8 896zM846.643 236.134c-38.86 12.544-92.313 35.072-153.037 57.652 36.455 62.617 63.181 135.321 82.586 215.552H579.43v72.704h240.487V622.08H579.43V742.4h-97.177c-16.999 0-16.999-17.562-16.999-17.562V622.08H222.31v-40.09h242.944v-72.704H266.086v-40.09h388.608c-14.54-50.124-33.945-97.74-55.808-140.287C472.525 371.405 338.944 406.528 253.901 384c-53.453-12.544-89.907-37.58-109.312-62.669C49.869 203.571 117.862 25.6 317.082 25.6c116.582 0 230.758 67.686 318.208 177.971C766.515 138.394 1024 28.11 1024 28.11v157.9c-2.406 0-33.997 2.51-177.357 50.125zM297.626 93.286c-155.495 0-199.168 125.287-123.904 192.973 24.32 22.528 72.908 35.072 97.177 37.581 92.314 10.035 177.357-27.546 276.992-77.67-70.502-95.232-160.358-152.884-250.265-152.884z"  horiz-adv-x="1024" />
      
      <glyph glyph-name="shimingrenzheng" unicode="&#58898;" d="M819.2 793.6A153.6 153.6 0 0 0 972.8 640v-512a153.6 153.6 0 0 0-153.6-153.6H204.8A153.6 153.6 0 0 0 51.2 128V640a153.6 153.6 0 0 0 153.6 153.6h614.4zM332.8 358.4a153.6 153.6 0 0 1-153.6-153.6 51.2 51.2 0 0 1 51.2-51.2h307.2a51.2 51.2 0 0 1 51.2 51.2 153.6 153.6 0 0 1-153.6 153.6H332.8z m389.12-51.2a30.72 30.72 0 0 1 0-61.44h92.16a30.72 30.72 0 0 1 0 61.44h-92.16zM384 614.4a102.4 102.4 0 1 1 0-204.8 102.4 102.4 0 0 1 0 204.8zM721.92 512a30.72 30.72 0 0 1 0-61.44h92.16a30.72 30.72 0 0 1 0 61.44h-92.16z"  horiz-adv-x="1024" />
      
      <glyph glyph-name="kuaijiezhifu" unicode="&#58899;" d="M204.8 896h614.4Q1024 896 1024 691.2v-614.4q0-204.8-204.8-204.8H204.8Q0-128 0 76.8V691.2Q0 896 204.8 896zM793.037 260.608H739.84v-59.955h53.146v59.955z m77.363-94.31c0-35.175-29.082-63.898-64.614-63.898H218.112c-35.533 0-64.512 28.826-64.512 63.898V434.79h716.8v-268.492z m0 364.236H153.6v71.27c0 35.073 29.082 63.796 64.512 63.796h587.674c35.532 0 64.614-28.672 64.614-63.795v-71.27zM724.736 260.608H671.59v-59.955h53.146v59.955z m-65.485 0h-53.043v-59.955h53.094v59.955z"  horiz-adv-x="1024" />
      
      <glyph glyph-name="weixinzhifu" unicode="&#58895;" d="M204.8 896h614.4Q1024 896 1024 691.2v-614.4q0-204.8-204.8-204.8H204.8Q0-128 0 76.8V691.2Q0 896 204.8 896zM463.309 269.312a23.654 23.654 0 0 0-20.89 11.878l-1.536 3.38-124.928 169.779a11.52 11.52 0 0 0-1.229 4.864 12.134 12.134 0 0 0 3.636 8.345 11.469 11.469 0 0 0 8.294 3.277c2.714 0 5.171-0.87 7.168-2.304l136.704-83.968a36.864 36.864 0 0 1 31.846-3.584L804.762 568.32C739.84 642.662 632.986 691.2 512 691.2c-197.94 0-358.4-129.946-358.4-290.202 0-87.398 48.282-166.092 123.802-219.29a22.682 22.682 0 0 0 10.035-18.892 27.392 27.392 0 0 0-1.229-7.424l-16.18-58.522c-0.767-2.764-1.894-5.632-1.894-8.448a11.776 11.776 0 0 1 11.93-11.622c2.56 0 4.66 0.922 6.86 2.15l78.49 44.032a38.298 38.298 0 0 0 19.047 5.325c3.635 0 7.168-0.512 10.496-1.536 36.608-10.189 76.134-15.872 116.992-15.872C709.939 110.9 870.4 240.845 870.4 401c0 48.588-14.848 94.31-40.858 134.502L476.621 273.306l-2.56-1.485a24.064 24.064 0 0 0-10.752-2.509z"  horiz-adv-x="1024" />
      
      <glyph glyph-name="gouxuan1" unicode="&#58896;" d="M512-30.72C281.6-30.72 97.28 153.6 97.28 384S281.6 798.72 512 798.72 926.72 614.4 926.72 384 742.4-30.72 512-30.72z m0 768c-194.56 0-353.28-158.72-353.28-353.28S317.44 30.72 512 30.72 865.28 189.44 865.28 384 706.56 737.28 512 737.28zM276.48 394.24c-10.24-10.24-10.24-30.72 0-40.96l138.24-138.24s10.24-5.12 15.36-10.24c10.24 0 20.48 0 25.6 10.24l281.6 281.6c10.24 10.24 10.24 30.72 0 40.96-10.24 10.24-30.72 10.24-40.96 0L435.2 276.48 317.44 394.24c-10.24 10.24-30.72 10.24-40.96 0z"  horiz-adv-x="1024" />
      
      <glyph glyph-name="shangchuanwenjian" unicode="&#59320;" d="M755.248302 26.566038h-96.603774q-2.898113 0-5.65132-0.579623-2.801509-0.531321-5.458114-1.642264-2.608302-1.062642-4.975094-2.656604-2.415094-1.593962-4.395472-3.622641-2.028679-2.028679-3.622641-4.34717-1.593962-2.415094-2.656604-5.023396-1.110943-2.656604-1.642264-5.458114-0.579623-2.801509-0.579623-5.65132 0-2.898113 0.579623-5.651321 0.531321-2.801509 1.642264-5.458113 1.062642-2.608302 2.656604-4.975095 1.593962-2.415094 3.622641-4.395471 2.028679-2.028679 4.34717-3.622642 2.415094-1.593962 5.023396-2.656604 2.656604-1.110943 5.458114-1.642264 2.801509-0.579623 5.65132-0.579622h98.922264q52.069434 0 87.812831 36.419622 35.453585 36.081509 35.453585 88.05434V486.351698q0 29.609057-20.190189 51.827925l-108.099623 118.919245-106.070943 116.649057q-23.329811 25.648302-57.769057 25.648301H273.678491q-52.021132 0-89.358491-36.709434-37.675472-36.950943-37.675472-89.020377v-579.33283q0-51.97283 35.260378-88.489057 35.936604-37.240755 88.006037-37.240754H368.833208q2.898113 0 5.65132 0.579622 2.801509 0.531321 5.458114 1.642264 2.608302 1.062642 4.975094 2.656604 2.415094 1.593962 4.395472 3.622642 2.028679 2.028679 3.622641 4.347169 1.593962 2.415094 2.656604 5.023397 1.110943 2.656604 1.642264 5.458113 0.579623 2.801509 0.579623 5.651321 0 2.898113-0.579623 5.65132-0.531321 2.801509-1.642264 5.458114-1.062642 2.608302-2.656604 4.975094-1.593962 2.415094-3.622641 4.395472-2.028679 2.028679-4.34717 3.622641-2.415094 1.593962-5.023396 2.656604-2.656604 1.110943-5.458114 1.642264Q371.683019 26.566038 368.833208 26.566038H269.910943q-27.483774 0-46.273207 19.513962-19.030943 19.70717-19.030944 48.301887V673.618113q0 27.725283 20.335095 47.722264Q245.373585 741.433962 273.678491 741.433962h315.024905q8.839245 0 14.876981-6.66566l106.070944-116.697359 108.099622-118.870943q5.12-5.651321 5.12-12.848302v-393.273962q0-28.304906-18.837735-47.432453-18.741132-19.079245-46.466416-19.079245H755.248302zM639.323774 637.584906V770.415094h-57.962265v-170.215849q0-52.069434 37.433963-88.489056 36.902642-35.936604 88.875471-35.936604H851.852075V533.735849h-144.181132q-28.401509 0-48.446792 19.513962-19.900377 19.320755-19.900377 46.949434V637.584906zM542.72 176.446792l53.035472-52.987169q2.028679-2.028679 4.34717-3.622642 2.415094-1.593962 5.023396-2.656604 2.656604-1.110943 5.458113-1.690566 2.801509-0.531321 5.651321-0.53132 2.849811 0 5.65132 0.53132 2.801509 0.579623 5.458114 1.690566 2.608302 1.062642 4.975094 2.656604 2.415094 1.593962 4.395472 3.622642 2.028679 1.980377 3.622641 4.347169 1.593962 2.415094 2.656604 5.023397 1.110943 2.656604 1.642264 5.458113 0.579623 2.801509 0.579623 5.651321 0 2.849811-0.579623 5.65132-0.531321 2.801509-1.642264 5.409812-1.062642 2.656604-2.656604 5.023396-1.593962 2.415094-3.622641 4.395472l-102.448302 102.448302q-2.028679 2.028679-4.395472 3.622641-2.415094 1.593962-5.023396 2.656604-2.608302 1.110943-5.409811 1.642264-2.801509 0.579623-5.651321 0.579623-2.898113 0-5.651321-0.579623-2.801509-0.531321-5.458113-1.642264-2.656604-1.062642-5.023396-2.656604-2.366792-1.593962-4.34717-3.622641l-102.496604-102.4v-0.048302q-2.028679-2.028679-3.57434-4.34717-1.593962-2.415094-2.704905-5.071698-1.110943-2.608302-1.642264-5.409812-0.579623-2.801509-0.579623-5.65132 0-2.898113 0.579623-5.651321 0.531321-2.801509 1.642264-5.458113 1.110943-2.608302 2.704905-4.975095 1.54566-2.415094 3.57434-4.395471 2.028679-2.028679 4.395472-3.622642 2.415094-1.593962 5.023396-2.656604 2.608302-1.110943 5.409811-1.690566 2.801509-0.531321 5.651321-0.53132 2.898113 0 5.651321 0.53132 2.801509 0.579623 5.458113 1.690566 2.608302 1.062642 5.023396 2.656604 2.366792 1.593962 4.34717 3.622642L484.757736 176.398491V-2.415094q0-2.898113 0.579622-5.651321 0.531321-2.801509 1.642265-5.458113 1.062642-2.608302 2.656603-4.975095 1.593962-2.415094 3.622642-4.395471 2.028679-2.028679 4.34717-3.622642 2.415094-1.593962 5.071698-2.656604 2.608302-1.110943 5.409811-1.642264 2.801509-0.579623 5.651321-0.579622 2.898113 0 5.651321 0.579622 2.801509 0.531321 5.458113 1.642264 2.608302 1.062642 4.975094 2.656604 2.415094 1.593962 4.395472 3.622642 2.028679 2.028679 3.622641 4.347169 1.593962 2.415094 2.656604 5.023397 1.110943 2.656604 1.642264 5.458113 0.579623 2.801509 0.579623 5.651321v178.861886z"  horiz-adv-x="1085" />
      
      <glyph glyph-name="tuodongpaixu" unicode="&#59309;" d="M542.72 655.794717l53.035472-53.035472q2.028679-1.980377 4.34717-3.574339 2.415094-1.593962 5.023396-2.704906 2.656604-1.062642 5.458113-1.642264 2.801509-0.531321 5.651321-0.531321 2.898113 0 5.65132 0.531321 2.801509 0.579623 5.458114 1.642264 2.608302 1.110943 4.975094 2.704906 2.415094 1.593962 4.395472 3.574339 2.028679 2.028679 3.622641 4.395472 1.593962 2.415094 2.656604 5.023396 1.110943 2.656604 1.642264 5.458113 0.579623 2.801509 0.579623 5.651321 0 2.849811-0.579623 5.651321-0.531321 2.801509-1.642264 5.409811-1.062642 2.656604-2.656604 5.023396-1.593962 2.366792-3.622641 4.34717L534.26717 746.264151q-2.028679 2.028679-4.395472 3.622641-2.415094 1.593962-5.023396 2.656604-2.608302 1.110943-5.409811 1.642264-2.801509 0.579623-5.651321 0.579623-2.898113 0-5.651321-0.579623-2.801509-0.531321-5.458113-1.642264-2.608302-1.062642-5.023396-2.656604-2.366792-1.593962-4.34717-3.622641L390.762264 643.767547q-2.028679-2.028679-3.574339-4.395472-1.593962-2.415094-2.704906-5.023396-1.062642-2.608302-1.642264-5.409811-0.579623-2.801509-0.579623-5.651321 0-2.898113 0.579623-5.651321 0.579623-2.801509 1.642264-5.458113 1.110943-2.656604 2.704906-5.023396 1.54566-2.366792 3.574339-4.34717 2.028679-2.028679 4.395472-3.622641 2.415094-1.593962 5.023396-2.704906 2.608302-1.062642 5.409811-1.642264 2.801509-0.531321 5.651321-0.531321 2.898113 0 5.651321 0.531321 2.801509 0.579623 5.458113 1.642264 2.608302 1.110943 5.023396 2.704906 2.366792 1.593962 4.34717 3.574339L484.757736 655.746415v-178.813585q0-2.898113 0.579622-5.651321 0.531321-2.801509 1.642265-5.458113 1.110943-2.608302 2.656603-4.975094 1.593962-2.415094 3.622642-4.395472 2.028679-2.028679 4.34717-3.622641 2.415094-1.593962 5.071698-2.656604 2.608302-1.110943 5.409811-1.690566 2.801509-0.531321 5.651321-0.531321 2.898113 0 5.651321 0.531321 2.801509 0.579623 5.458113 1.690566 2.608302 1.062642 4.975094 2.656604 2.415094 1.593962 4.395472 3.622641 2.028679 1.980377 3.622641 4.34717 1.593962 2.415094 2.656604 5.023396 1.110943 2.656604 1.642264 5.458113 0.579623 2.801509 0.579623 5.651321V655.794717zM542.72 112.156981l52.98717 53.035472q2.028679 1.980377 4.395472 3.574339 2.415094 1.593962 5.023396 2.656604 2.656604 1.110943 5.458113 1.690566 2.801509 0.531321 5.651321 0.531321 2.849811 0 5.65132-0.531321 2.801509-0.579623 5.409812-1.690566 2.656604-1.062642 5.023396-2.656604 2.366792-1.593962 4.34717-3.622641 4.10566-4.057358 6.279245-9.370566 2.221887-5.313208 2.221887-11.109434 0-5.796226-2.173585-11.109434-2.221887-5.313208-6.279245-9.370566L534.26717 21.735849q-2.028679-2.028679-4.395472-3.622641-2.415094-1.593962-5.023396-2.656604-2.656604-1.110943-5.458113-1.642264-2.801509-0.579623-5.651321-0.579623-2.849811 0-5.651321 0.579623-2.801509 0.531321-5.409811 1.642264-2.656604 1.062642-5.023396 2.656604-2.415094 1.593962-4.34717 3.622641h-0.048302L390.810566 124.135849q-2.028679 2.028679-3.622641 4.395472-1.593962 2.415094-2.656604 5.023396-1.110943 2.608302-1.642264 5.409811-0.579623 2.801509-0.579623 5.651321 0 2.898113 0.579623 5.651321 0.531321 2.801509 1.642264 5.458113 1.062642 2.608302 2.656604 5.023396 1.593962 2.366792 3.622641 4.34717 2.028679 2.028679 4.34717 3.622642 2.415094 1.593962 5.023396 2.656603 2.656604 1.110943 5.458113 1.690566 2.801509 0.531321 5.651321 0.531321 2.898113 0 5.651321-0.531321 2.801509-0.579623 5.458113-1.690566 2.608302-1.062642 4.975094-2.656603 2.415094-1.593962 4.395472-3.622642L484.757736 112.253585v178.861887q0 2.849811 0.579622 5.65132 0.531321 2.801509 1.642265 5.409812 1.062642 2.656604 2.656603 5.023396 1.593962 2.366792 3.622642 4.34717 2.028679 2.076981 4.34717 3.622641 2.415094 1.593962 5.023396 2.704906 2.656604 1.062642 5.458113 1.642264 2.801509 0.531321 5.651321 0.531321 2.849811 0 5.651321-0.531321 2.801509-0.579623 5.458113-1.642264 2.608302-1.110943 4.975094-2.704906 2.415094-1.54566 4.395472-3.574339 2.028679-2.028679 3.622641-4.395472 1.593962-2.415094 2.656604-5.023396 1.110943-2.608302 1.642264-5.409812 0.579623-2.801509 0.579623-5.65132v-178.910189zM223.927547 435.924528h579.622642q2.898113 0 5.65132 0.579623 2.801509 0.531321 5.458114 1.642264 2.608302 1.062642 4.975094 2.656604 2.415094 1.593962 4.395472 3.622641 2.028679 2.028679 3.622641 4.34717 1.593962 2.415094 2.656604 5.023396 1.110943 2.656604 1.642264 5.458114 0.579623 2.801509 0.579623 5.65132 0 2.898113-0.579623 5.651321-0.531321 2.801509-1.642264 5.458113-1.062642 2.608302-2.656604 4.975095-1.593962 2.415094-3.622641 4.395471-2.028679 2.028679-4.34717 3.622642-2.415094 1.593962-5.023396 2.656604-2.656604 1.110943-5.458114 1.642264-2.801509 0.579623-5.65132 0.579622H223.927547q-2.898113 0-5.651321-0.579622-2.801509-0.531321-5.458113-1.642264-2.608302-1.062642-4.975094-2.656604-2.415094-1.593962-4.395472-3.622642-2.028679-2.028679-3.622641-4.347169-1.593962-2.415094-2.656604-5.023397-1.110943-2.656604-1.642264-5.458113-0.579623-2.801509-0.579623-5.651321 0-2.898113 0.579623-5.65132 0.531321-2.801509 1.642264-5.458114 1.062642-2.608302 2.656604-4.975094 1.593962-2.415094 3.622641-4.395472 2.028679-2.028679 4.34717-3.622641 2.415094-1.593962 5.023396-2.656604 2.656604-1.110943 5.458113-1.642264 2.801509-0.579623 5.651321-0.579623zM223.927547 332.02717h579.622642q2.898113 0 5.65132-0.579623 2.801509-0.531321 5.458114-1.642264 2.608302-1.062642 4.975094-2.656604 2.415094-1.593962 4.395472-3.622641 2.028679-2.028679 3.622641-4.34717 1.593962-2.415094 2.656604-5.023396 1.110943-2.656604 1.642264-5.458114 0.579623-2.801509 0.579623-5.65132 0-2.898113-0.579623-5.651321-0.531321-2.801509-1.642264-5.458113-1.062642-2.608302-2.656604-4.975095-1.593962-2.415094-3.622641-4.395471-2.028679-2.028679-4.34717-3.622642-2.415094-1.593962-5.023396-2.656604-2.656604-1.110943-5.458114-1.642264-2.801509-0.579623-5.65132-0.579622H223.927547q-2.898113 0-5.651321 0.579622-2.801509 0.531321-5.458113 1.642264-2.608302 1.062642-4.975094 2.656604-2.415094 1.593962-4.395472 3.622642-2.028679 2.028679-3.622641 4.34717-1.593962 2.415094-2.656604 5.023396-1.110943 2.656604-1.642264 5.458113-0.579623 2.801509-0.579623 5.651321 0 2.898113 0.579623 5.65132 0.531321 2.801509 1.642264 5.458114 1.062642 2.608302 2.656604 4.975094 1.593962 2.415094 3.622641 4.395472 2.028679 2.028679 4.34717 3.622641 2.415094 1.593962 5.023396 2.656604 2.656604 1.110943 5.458113 1.642264 2.801509 0.579623 5.651321 0.579623z"  horiz-adv-x="1085" />
      
      <glyph glyph-name="fanhui-da" unicode="&#59307;" d="M633.7536 92.3136a44.288 44.288 0 0 0-14.9504-60.416 43.52 43.52 0 0 0-59.904 15.104L358.4 384l200.4992 336.9984a43.52 43.52 0 0 0 59.904 15.104 44.288 44.288 0 0 0 14.9504-60.416L460.288 384l173.568-291.6864z"  horiz-adv-x="1024" />
      
      <glyph glyph-name="shouqi" unicode="&#59306;" d="M475.904 266.496L292.352 450.048C260.1472 482.2528 280.4736 537.6 326.0928 537.6h371.8144c45.6192 0 65.9456-55.3472 33.6896-87.6032l-183.5008-183.5008a50.944 50.944 0 0 0-72.192 0"  horiz-adv-x="1024" />
      
      <glyph glyph-name="AI" unicode="&#59298;" d="M819.925333 704a12.416 12.416 0 0 1-23.466666 1.237333l-28.330667-70.826666a58.666667 58.666667 0 0 0-38.442667-34.688l-73.386666-20.821334a12.373333 12.373333 0 0 1-1.237334-23.466666l70.826667-28.373334c8.362667-3.413333 15.829333-8.661333 21.845333-15.317333 5.973333-6.656 10.368-14.549333 12.714667-23.125333l20.821333-73.429334c0.682667-2.474667 2.133333-4.693333 4.181334-6.272 2.048-1.621333 4.522667-2.56 7.125333-2.730666a12.629333 12.629333 0 0 1 7.381333 1.962666 12.16 12.16 0 0 1 4.778667 5.802667l28.416 70.826667c3.242667 8.277333 8.405333 15.701333 15.061333 21.674666 6.656 6.016 14.634667 10.453333 23.338667 12.970667l73.386667 20.906667a12.288 12.288 0 0 1 1.28 23.338666l-70.869334 28.416a58.794667 58.794667 0 0 0-34.56 38.485334L819.925333 704zM117.034667 61.909333l196.565333 17.92a25.173333 25.173333 0 0 1 19.882667 13.226667l48.213333 87.936a25.216 25.216 0 0 1-26.24 37.376l-80.725333-13.952a8.405333 8.405333 0 0 0-9.088 11.818667l116.778666 255.829333c3.370667 7.381333 14.08 5.888 16-2.005333l96.213334-395.093334a25.6 25.6 0 0 1 24.832-19.584h107.093333a25.685333 25.685333 0 0 1 24.746667 32.213334l-143.488 549.973333a43.690667 43.690667 0 0 1-41.941334 32.213333H340.309333c-16.981333 0-32.426667-10.282667-39.168-25.898666l-227.413333-523.093334c-12.928-29.738667 11.008-61.781333 43.306667-58.88z m710.826666 300.672H748.373333a42.24 42.24 0 0 1-42.069333-37.248l-27.434667-221.482666a43.648 43.648 0 0 1 43.093334-48.469334h79.530666a42.24 42.24 0 0 1 42.026667 37.290667l27.434667 221.482667a43.648 43.648 0 0 1-43.050667 48.426666z"  horiz-adv-x="1024" />
      
      <glyph glyph-name="xiangce" unicode="&#58893;" d="M325.851 231.131a54.857 54.857 0 0 0 77.568 0l249.418-249.417H292.57a218.66 218.66 0 0 0-153.453 62.684L325.85 231.13zM731.43 786.286a219.429 219.429 0 0 0 219.428-219.429v-365.714A219.502 219.502 0 0 0 797.77-8.046L480.987 308.7a164.571 164.571 0 0 1-232.704 0L81.335 141.787a219.502 219.502 0 0 0-8.192 59.356V566.857A219.429 219.429 0 0 0 292.57 786.286H731.43zM676.57 603.429a91.429 91.429 0 1 1 0-182.858 91.429 91.429 0 0 1 0 182.858z"  horiz-adv-x="1024" />
      
      <glyph glyph-name="paishe" unicode="&#58894;" d="M658.286 804.571a146.286 146.286 0 0 0 144.128-121.49A219.465 219.465 0 0 0 950.857 475.43v-292.572A219.429 219.429 0 0 0 731.43-36.57H292.57A219.429 219.429 0 0 0 73.143 182.857V475.43A219.502 219.502 0 0 0 221.55 683.08a146.286 146.286 0 0 0 144.164 121.49h292.572zM512 566.857a237.714 237.714 0 1 1 0-475.428 237.714 237.714 0 0 1 0 475.428z m0-109.714a128 128 0 1 0 0-256 128 128 0 0 0 0 256z"  horiz-adv-x="1024" />
      
      <glyph glyph-name="sanfangxinxi" unicode="&#58891;" d="M524.8 312.32a35.84 35.84 0 0 0 0-71.68H345.6a35.84 35.84 0 0 0 0 71.68h179.2z m153.6 256a35.84 35.84 0 0 0 0-71.68H345.6a35.84 35.84 0 0 0 0 71.68h332.8zM678.4 824.32a240.64 240.64 0 0 0 240.64-240.64v-399.36A240.64 240.64 0 0 0 678.4-56.32H345.6a240.64 240.64 0 0 0-240.64 240.64V583.68A240.64 240.64 0 0 0 345.6 824.32h332.8z m-332.8-71.68a168.96 168.96 0 0 1-168.96-168.96v-399.36A168.96 168.96 0 0 1 345.6 15.36h332.8a168.96 168.96 0 0 1 168.96 168.96V583.68A168.96 168.96 0 0 1 678.4 752.64H345.6z"  horiz-adv-x="1024" />
      
      <glyph glyph-name="IM-jiahao" unicode="&#58892;" d="M512 844.8c254.507 0 460.8-206.293 460.8-460.8S766.507-76.8 512-76.8 51.2 129.493 51.2 384 257.493 844.8 512 844.8z m0-68.267a392.533 392.533 0 1 1 0-785.066 392.533 392.533 0 0 1 0 785.066zM512 640a34.133 34.133 0 0 0 34.133-34.133v-187.734h187.734a34.133 34.133 0 0 0 0-68.266H546.133v-187.734a34.133 34.133 0 1 0-68.266 0V349.867H290.133a34.133 34.133 0 0 0 0 68.266h187.734V605.867A34.133 34.133 0 0 0 512 640z"  horiz-adv-x="1024" />
      
      <glyph glyph-name="liangduanduiqi" unicode="&#58882;" d="M896 72.533a29.867 29.867 0 0 0 0-59.733H128a29.867 29.867 0 0 0 0 59.733h768z m0 341.334a29.867 29.867 0 0 0 0-59.734H128a29.867 29.867 0 0 0 0 59.734h768z m0 341.333a29.867 29.867 0 0 0 0-59.733H128a29.867 29.867 0 0 0 0 59.733h768z"  horiz-adv-x="1024" />
      
      <glyph glyph-name="gouwuche" unicode="&#58883;" d="M304.64 17.92a61.44 61.44 0 1 0 0-122.88 61.44 61.44 0 0 0 0 122.88z m532.48 0a61.44 61.44 0 1 0 0-122.931 61.44 61.44 0 0 0 0 122.88zM84.48 872.96c37.274 0 64.512-16.435 82.586-36.864 16.23-18.38 24.627-39.68 28.467-55.245h0.102c7.424-24.678 14.643-52.94 20.378-76.902h661.76a138.24 138.24 0 0 0 134.81-168.909L931.02 185.19a138.24 138.24 0 0 0-134.759-107.622h-443.29A138.24 138.24 0 0 0 216.065 197.12l-65.28 470.374-3.226 14.848c-5.632 24.064-13.21 53.248-20.633 77.927l-0.359 1.177-0.256 1.28a62.157 62.157 0 0 1-13.004 26.01A35.738 35.738 0 0 1 84.48 801.28H43.52a35.84 35.84 0 0 0 0 71.68h40.96z m202.547-666.112a66.56 66.56 0 0 1 65.946-57.6h443.29a66.56 66.56 0 0 1 64.87 51.814l81.561 349.901a66.56 66.56 0 0 1-64.921 81.306h-649.83l59.084-425.472z"  horiz-adv-x="1024" />
      
      <glyph glyph-name="IM-jianpan" unicode="&#58884;" d="M746.667 776.533A200.533 200.533 0 0 0 947.2 576v-384a200.533 200.533 0 0 0-200.533-200.533H277.333A200.533 200.533 0 0 0 76.8 192V576a200.533 200.533 0 0 0 200.533 200.533h469.334zM277.333 716.8a140.8 140.8 0 0 1-140.8-140.8v-384a140.8 140.8 0 0 1 140.8-140.8h469.334a140.8 140.8 0 0 1 140.8 140.8V576a140.8 140.8 0 0 1-140.8 140.8H277.333z m460.8-486.4a29.867 29.867 0 0 0 0-59.733H285.867a29.867 29.867 0 0 0 0 59.733h452.266zM298.667 413.867a42.667 42.667 0 1 0 0-85.334 42.667 42.667 0 0 0 0 85.334z m213.333 0a42.667 42.667 0 1 0 0-85.334 42.667 42.667 0 0 0 0 85.334z m213.333 0a42.667 42.667 0 1 0 0-85.334 42.667 42.667 0 0 0 0 85.334zM298.667 597.333a42.667 42.667 0 1 0 0-85.333 42.667 42.667 0 0 0 0 85.333z m213.333 0A42.667 42.667 0 1 0 512 512a42.667 42.667 0 0 0 0 85.333z m213.333 0a42.667 42.667 0 1 0 0-85.333 42.667 42.667 0 0 0 0 85.333z"  horiz-adv-x="1024" />
      
      <glyph glyph-name="beijing1" unicode="&#58885;" d="M460.8 767.104a115.2 115.2 0 0 0 162.901 0l271.531-271.488a115.243 115.243 0 0 0 0-162.987L563.371 0.768a115.243 115.243 0 0 0-162.987 0l-271.488 271.53a115.2 115.2 0 0 0 0 162.945l212.821 212.821-67.157 67.157a29.867 29.867 0 0 0 42.24 42.24l67.2-67.114 76.8 76.8z m371.541-564.053c35.371 0 64-95.062 64-137.174 0-42.069-28.629-76.202-64-76.202-35.328 0-64 34.133-64 76.202 0 42.112 28.672 137.131 64 137.131z m-250.88 521.813a55.467 55.467 0 0 1-78.421 0l-76.843-76.8 2.091-2.048a29.867 29.867 0 0 0-42.24-42.24l-2.133 2.09-119.936-120.02L800.597 322.56l52.395 52.352a55.467 55.467 0 0 1 0 78.421L581.419 724.907z"  horiz-adv-x="1024" />
      
      <glyph glyph-name="IM-biaoqing" unicode="&#58886;" d="M621.355 279.339a29.867 29.867 0 0 0 37.29-46.678c-38.57-30.848-90.453-49.194-146.645-49.194-56.235 0-108.075 18.346-146.688 49.194a29.867 29.867 0 0 0 37.376 46.678C430.038 257.408 468.523 243.2 512 243.2c43.435 0 81.92 14.208 109.355 36.139zM373.333 554.667a32 32 0 0 0 32-32v-64a32 32 0 0 0-64 0v64a32 32 0 0 0 32 32z m277.334 0a32 32 0 0 0 32-32v-64a32 32 0 0 0-64 0v64a32 32 0 0 0 32 32zM512 840.533c252.16 0 456.533-204.373 456.533-456.533 0-252.16-204.373-456.533-456.533-456.533C259.84-72.533 55.467 131.84 55.467 384 55.467 636.16 259.84 840.533 512 840.533z m0-59.733A396.8 396.8 0 0 1 115.2 384 396.8 396.8 0 0 1 512-12.8 396.8 396.8 0 0 1 908.8 384 396.8 396.8 0 0 1 512 780.8z"  horiz-adv-x="1024" />
      
      <glyph glyph-name="bangzhuyufankui" unicode="&#58887;" d="M704 778.24A240.64 240.64 0 0 0 944.64 537.6v-307.2A240.64 240.64 0 0 0 704-10.24H320A240.64 240.64 0 0 0 79.36 230.4V537.6A240.64 240.64 0 0 0 320 778.24h384zM583.782 430.336a240.794 240.794 0 0 0-143.616 0L151.04 520.704V230.4A168.96 168.96 0 0 1 320 61.44h384A168.96 168.96 0 0 1 872.96 230.4V520.704l-289.178-90.368zM320 706.56a169.011 169.011 0 0 1-159.693-113.664l301.261-94.208c32.768-10.24 67.994-10.24 100.813 0l301.21 94.157A168.96 168.96 0 0 1 704 706.56H320z"  horiz-adv-x="1024" />
      
      <glyph glyph-name="xiabiao" unicode="&#58888;" d="M797.867 695.467c8.533-8.534 17.066-8.534 25.6 0l42.666 42.666c12.8 12.8 0 29.867-12.8 29.867H768c-17.067 0-25.6-17.067-12.8-29.867l42.667-42.666z m-384 46.933c-17.067 34.133-59.734 34.133-81.067 0L93.867 85.333c-8.534-12.8 0-34.133 12.8-38.4 12.8-8.533 34.133 0 38.4 12.8l76.8 209.067h307.2l76.8-209.067c8.533-12.8 25.6-21.333 38.4-12.8 12.8 8.534 21.333 25.6 12.8 38.4L413.867 742.4zM243.2 332.8h-4.267L371.2 691.2l132.267-358.4H243.2z m669.867-238.933s-8.534 4.266-12.8 4.266H789.333L874.667 192c12.8 17.067 21.333 29.867 29.866 42.667s8.534 25.6 8.534 42.666-4.267 34.134-12.8 46.934c-8.534 17.066-21.334 25.6-34.134 34.133s-29.866 12.8-51.2 12.8-29.866 0-42.666-8.533-25.6-17.067-34.134-29.867c-8.533-12.8-17.066-25.6-21.333-38.4v-12.8s8.533-4.267 12.8-4.267h21.333s8.534 8.534 8.534 12.8c0 8.534 4.266 12.8 8.533 17.067 4.267 4.267 12.8 8.533 17.067 12.8s17.066 4.267 21.333 4.267 21.333 0 25.6-8.534c8.533 0 12.8-8.533 17.067-17.066 4.266-8.534 8.533-17.067 8.533-25.6s0-17.067-4.267-25.6c0-8.534-8.533-17.067-21.333-29.867L721.067 98.133c0-4.266-8.534-8.533-8.534-12.8V64c0-4.267 0-8.533 4.267-12.8 0 0 8.533-4.267 12.8-4.267h162.133c4.267 0 8.534 0 12.8 4.267 0 0 4.267 8.533 4.267 12.8v8.533c0 4.267 0 8.534-4.267 12.8z"  horiz-adv-x="1024" />
      
      <glyph glyph-name="shangbiao" unicode="&#58889;" d="M409.6 712.533c-17.067 34.134-59.733 34.134-81.067 4.267 0-4.267-238.933-657.067-238.933-657.067-8.533-12.8 0-34.133 12.8-38.4 12.8-8.533 34.133 0 38.4 12.8L217.6 243.2h307.2l76.8-209.067c8.533-12.8 25.6-21.333 38.4-12.8 12.8 8.534 21.333 25.6 12.8 38.4l-243.2 652.8z m-170.667-409.6l132.267 358.4 132.267-358.4H243.2zM819.2 89.6c-8.533 8.533-17.067 8.533-25.6 0l-42.667-42.667c-12.8-12.8 0-29.866 12.8-29.866h85.334c12.8 0 25.6 17.066 12.8 29.866L819.2 89.6z m89.6 366.933s-8.533 4.267-12.8 4.267H785.067l85.333 93.867c12.8 17.066 21.333 29.866 29.867 42.666s8.533 25.6 8.533 42.667-4.267 34.133-12.8 46.933c-8.533 17.067-21.333 25.6-34.133 34.134s-29.867 12.8-51.2 12.8-29.867 0-42.667-8.534-25.6-17.066-34.133-29.866c-8.534-12.8-17.067-25.6-21.334-38.4v-12.8s8.534-4.267 12.8-4.267h21.334s8.533 8.533 8.533 12.8c0 8.533 4.267 12.8 8.533 17.067 4.267 4.266 12.8 8.533 17.067 12.8s17.067 4.266 21.333 4.266 21.334 0 25.6-8.533c8.534 0 12.8-8.533 17.067-17.067 4.267-8.533 8.533-17.066 8.533-25.6s0-17.066-4.266-25.6c0-8.533-8.534-17.066-21.334-29.866L716.8 460.8c0-4.267-8.533-8.533-8.533-12.8v-21.333c0-4.267 0-8.534 4.266-12.8 0 0 8.534-4.267 12.8-4.267h162.134c4.266 0 8.533 0 12.8 4.267 0 0 4.266 8.533 4.266 12.8V435.2c0 4.267 0 8.533-4.266 12.8z"  horiz-adv-x="1024" />
      
      <glyph glyph-name="yinsishezhi" unicode="&#58890;" d="M512 384a35.84 35.84 0 0 0 35.84-35.84v-133.12a35.84 35.84 0 0 0-71.68 0V348.16A35.84 35.84 0 0 0 512 384zM512 816.64a240.64 240.64 0 0 0 237.978-204.954A189.44 189.44 0 0 0 931.84 422.4v-281.6A189.44 189.44 0 0 0 742.4-48.64H281.6A189.44 189.44 0 0 0 92.16 140.8V422.4a189.44 189.44 0 0 0 181.76 189.286A240.742 240.742 0 0 0 512 816.64zM281.6 540.16A117.76 117.76 0 0 1 163.84 422.4v-281.6A117.76 117.76 0 0 1 281.6 23.04h460.8A117.76 117.76 0 0 1 860.16 140.8V422.4A117.76 117.76 0 0 1 742.4 540.16H281.6zM512 744.96a169.011 169.011 0 0 1-165.12-133.12h330.24A168.96 168.96 0 0 1 512 744.96z"  horiz-adv-x="1024" />
      
      <glyph glyph-name="biaoge1" unicode="&#58881;" d="M768 776.533a157.867 157.867 0 0 0 157.867-157.866v-469.334A157.867 157.867 0 0 0 768-8.533H256A157.867 157.867 0 0 0 98.133 149.333V618.667A157.867 157.867 0 0 0 256 776.533h512zM541.867 51.2H768a98.133 98.133 0 0 1 98.133 98.133v204.8H541.867V51.2z m-384 98.133A98.133 98.133 0 0 1 256 51.2h226.133V354.133H157.867v-204.8z m384 264.534h324.266v204.8A98.133 98.133 0 0 1 768 716.8H541.867v-302.933zM256 716.8a98.133 98.133 0 0 1-98.133-98.133v-204.8h324.266V716.8H256z"  horiz-adv-x="1024" />
      
      <glyph glyph-name="daima" unicode="&#59324;" d="M453.845333-82.602667q10.922667 10.922667 11.221334 26.282667l170.666666 878.933333V823.466667q0 15.872-11.221333 27.136Q613.248 861.866667 597.333333 861.866667t-27.136-11.264q-10.965333-10.922667-11.264-26.282667l-170.666666-878.933333v-0.853334q0-15.914667 11.264-27.136 11.221333-11.264 27.136-11.264t27.178666 11.264z m-165.12 175.104l-252.16 252.16q-16.256 16.213333-16.256 39.253334 0 22.954667 16.213334 39.210666l252.16 252.16q11.221333 11.221333 27.136 11.221334t27.178666-11.264q11.221333-11.221333 11.221334-27.136t-11.221334-27.178667l-237.056-237.056 237.056-237.056q11.221333-11.264 11.221334-27.178667 0-15.872-11.264-27.136-11.264-11.221333-27.136-11.221333t-27.136 11.221333z m446.634667 0q-11.221333-11.221333-27.136-11.221333-15.872 0-27.093333 11.221333-11.264 11.264-11.264 27.136 0 15.914667 11.221333 27.178667l237.056 237.056-237.056 237.056q-11.264 11.264-11.264 27.178667t11.264 27.136q11.264 11.264 27.136 11.264 15.914667 0 27.178667-11.264l252.16-252.16q16.213333-16.213333 16.213333-39.210667 0-22.954667-16.256-39.210667l-252.16-252.16z"  horiz-adv-x="1024" />
      
      <glyph glyph-name="liebiao" unicode="&#59325;" d="M196.266667 725.333333q0-21.205333-14.976-36.224-15.018667-14.976-36.224-14.976t-36.224 14.976Q93.866667 704.128 93.866667 725.333333t14.976 36.181334Q123.861333 776.533333 145.066667 776.533333t36.224-15.018666Q196.266667 746.538667 196.266667 725.333333z m695.466666 38.4q15.914667 0 27.136-11.264 11.264-11.221333 11.264-27.136t-11.264-27.178666q-11.221333-11.221333-27.136-11.221334h-597.333333q-15.914667 0-27.136 11.221334Q256 709.418667 256 725.333333t11.264 27.136Q278.485333 763.733333 294.4 763.733333h597.333333zM196.266667 384q0-21.205333-14.976-36.224-15.018667-14.976-36.224-14.976t-36.224 14.976Q93.866667 362.794667 93.866667 384t14.976 36.181333q15.018667 15.018667 36.224 15.018667t36.224-15.018667q14.976-14.976 14.976-36.181333z m695.466666 38.4q15.914667 0 27.136-11.264 11.264-11.221333 11.264-27.136t-11.264-27.178667q-11.221333-11.221333-27.136-11.221333h-597.333333q-15.914667 0-27.136 11.221333Q256 368.085333 256 384t11.264 27.136q11.221333 11.264 27.136 11.264h597.333333zM196.266667 42.666667q0-21.205333-14.976-36.224-15.018667-14.976-36.224-14.976t-36.224 14.976Q93.866667 21.461333 93.866667 42.666667t14.976 36.181333q15.018667 15.018667 36.224 15.018667t36.224-15.018667q14.976-14.976 14.976-36.181333z m695.466666 38.4q15.914667 0 27.136-11.264 11.264-11.221333 11.264-27.136t-11.264-27.178667q-11.221333-11.221333-27.136-11.221333h-597.333333q-15.914667 0-27.136 11.221333Q256 26.752 256 42.666667t11.264 27.136q11.221333 11.264 27.136 11.264h597.333333z"  horiz-adv-x="1024" />
      
      <glyph glyph-name="daoruwendang1" unicode="&#59326;" d="M110.933333 128V640q0 68.906667 48.725334 117.674667Q208.426667 806.4 277.333333 806.4H640.469333q1.536 0 3.072-0.170667h0.469334q11.477333-1.28 20.394666-8.618666 2.048-1.706667 3.882667-3.669334l234.666667-256q1.408-1.536 2.645333-3.2 7.466667-10.154667 7.466667-22.741333v-128q0-15.914667-11.264-27.178667-11.221333-11.221333-27.136-11.221333t-27.178667 11.221333Q836.266667 368.085333 836.266667 384V473.6H725.333333q-51.242667 0-87.466666 36.266667-36.266667 36.224-36.266667 87.466666V729.6H277.333333q-37.12 0-63.36-26.24Q187.733333 677.12 187.733333 640v-512q0-37.12 26.24-63.36 26.24-26.24 63.36-26.24h469.333334q37.12 0 63.36 26.24 26.24 26.24 26.24 63.36 0 15.914667 11.221333 27.136 11.264 11.264 27.178667 11.264t27.136-11.264q11.264-11.221333 11.264-27.136 0-68.906667-48.725334-117.674667Q815.573333-38.4 746.666667-38.4h-469.333334q-68.906667 0-117.674666 48.725333Q110.933333 59.093333 110.933333 128zM678.4 597.333333q0-19.456 13.738667-33.194666T725.333333 550.4h62.08L678.4 669.312V597.333333z m-142.378667-302.976l0.768 0.725334 77.653334 77.653333q11.264 11.264 27.178666 11.264t27.178667-11.221333q11.221333-11.264 11.221333-27.178667 0-15.872-11.221333-27.136l-12.970667-12.970667h219.264q15.914667 0 27.136-11.221333 11.264-11.264 11.264-27.178667t-11.264-27.136q-11.221333-11.264-27.136-11.264h-219.136l12.8-12.8q11.264-11.221333 11.264-27.136t-11.264-27.178666q-11.221333-11.221333-27.136-11.221334t-27.136 11.221334l-78.250666 78.250666-0.213334 0.213334q-0.896 0.853333-1.706666 1.877333-10.026667 11.392-9.514667 26.538667 0.512 15.146667 11.221333 25.898666z"  horiz-adv-x="1024" />
      
      <glyph glyph-name="renwuliebiao" unicode="&#59327;" d="M89.6 106.666667v554.666666q0 68.906667 48.725333 117.674667Q187.093333 827.733333 256 827.733333h512q68.906667 0 117.674667-48.725333Q934.4 730.24 934.4 661.333333v-554.666666q0-68.949333-48.725333-117.674667Q836.906667-59.733333 768-59.733333H256q-68.906667 0-117.674667 48.725333Q89.6 37.717333 89.6 106.666667z m76.8 0q0-37.12 26.24-63.36Q218.88 17.066667 256 17.066667h512q37.12 0 63.36 26.24 26.24 26.24 26.24 63.36v554.666666q0 37.12-26.24 63.36Q805.12 750.933333 768 750.933333H256q-37.12 0-63.36-26.24Q166.4 698.453333 166.4 661.333333v-554.666666z m348.501333 467.797333L376.106667 435.626667q-11.264-11.264-27.178667-11.264-15.872 0-27.136 11.264l-0.170667 0.170666-78.250666 78.250667q-11.264 11.264-11.264 27.178667t11.264 27.136q11.221333 11.264 27.136 11.264t27.136-11.264L349.013333 517.12l111.616 111.616Q471.808 640 487.68 640t27.178667-11.264q11.221333-11.221333 11.221333-27.136t-11.221333-27.136z m3.498667-95.402667q0 15.914667 11.264 27.178667 11.221333 11.221333 27.136 11.221333h196.266667q15.914667 0 27.136-11.221333 11.264-11.264 11.264-27.178667 0-15.872-11.264-27.136-11.221333-11.264-27.136-11.264h-196.266667q-15.914667 0-27.136 11.264-11.264 11.264-11.264 27.136z m-162.133333-349.866666q-51.242667 0-87.466667 36.266666-36.266667 36.266667-36.266667 87.466667 0 51.285333 36.266667 87.509333 36.224 36.266667 87.466667 36.266667 51.242667 0 87.466666-36.266667 36.266667-36.266667 36.266667-87.466666 0-51.285333-36.266667-87.509334-36.224-36.266667-87.466666-36.266666z m0 170.666666q-19.456 0-33.194667-13.738666t-13.738667-33.194667q0-19.413333 13.738667-33.152 13.738667-13.781333 33.194667-13.781333t33.194666 13.781333q13.738667 13.738667 13.738667 33.152 0 19.456-13.738667 33.194667t-33.194666 13.738666z m162.133333-76.8q0 15.914667 11.264 27.178667 11.221333 11.221333 27.136 11.221333h196.266667q15.914667 0 27.136-11.221333 11.264-11.264 11.264-27.178667 0-15.872-11.264-27.136-11.221333-11.264-27.136-11.264h-196.266667q-15.914667 0-27.136 11.264-11.264 11.264-11.264 27.136z"  horiz-adv-x="1024" />
      
      <glyph glyph-name="daimakuai1" unicode="&#59328;" d="M89.6 661.333333q0 68.906667 48.725333 117.674667Q187.093333 827.733333 256 827.733333h512q68.906667 0 117.674667-48.725333Q934.4 730.24 934.4 661.333333v-554.666666q0-68.949333-48.725333-117.674667Q836.906667-59.733333 768-59.733333H256q-68.906667 0-117.674667 48.725333Q89.6 37.717333 89.6 106.666667v554.666666z m103.04-618.026666Q218.88 17.066667 256 17.066667h512q37.12 0 63.36 26.24 26.24 26.24 26.24 63.36v554.666666q0 37.12-26.24 63.36Q805.12 750.933333 768 750.933333H256q-37.12 0-63.36-26.24Q166.4 698.453333 166.4 661.333333v-554.666666q0-37.12 26.24-63.36z m66.133333 139.776q-11.264 11.264-11.306666 27.136 0 15.914667 11.264 27.178666l146.517333 146.517334-146.517333 146.56Q247.466667 541.738667 247.466667 557.653333t11.264 27.136q11.221333 11.264 27.136 11.264t27.178666-11.264l161.621334-161.621333q16.213333-16.213333 16.213333-39.253333 0-22.954667-16.213333-39.210667l-161.706667-161.621333q-11.221333-11.221333-27.093333-11.221334t-27.136 11.221334zM768 162.133333h-170.666667q-15.914667 0-27.136 11.264-11.264 11.221333-11.264 27.136t11.264 27.136q11.221333 11.264 27.136 11.264h170.666667q15.914667 0 27.136-11.264 11.264-11.221333 11.264-27.136t-11.264-27.136q-11.221333-11.264-27.136-11.264z"  horiz-adv-x="1024" />
      
      <glyph glyph-name="shipin2" unicode="&#59299;" d="M908.544 609.578667q39.936 16 75.562667-8.106667 35.626667-24.149333 35.626666-67.157333v-300.672q0-42.965333-35.626666-67.114667-35.626667-24.106667-75.52-8.106667L806.4 199.253333V128q0-68.906667-48.725333-117.674667Q708.949333-38.4 640-38.4H170.666667q-68.906667 0-117.674667 48.725333Q4.266667 59.093333 4.266667 128V640q0 68.906667 48.725333 117.674667Q101.76 806.4 170.666667 806.4h469.333333q68.949333 0 117.674667-48.725333Q806.4 708.906667 806.4 640v-71.253333l102.144 40.832zM640 729.6H170.666667q-37.12 0-63.36-26.24Q81.066667 677.12 81.066667 640v-512q0-37.12 26.24-63.36Q133.546667 38.4 170.666667 38.4h469.333333q37.12 0 63.36 26.24 26.24 26.24 26.24 63.36v128q0 20.394667 16.896 31.829333 16.853333 11.392 35.754667 3.84l154.88-61.952q2.048-0.853333 3.925333 0.426667t1.877333 3.541333V534.314667q0 2.261333-1.877333 3.541333-1.877333 1.28-3.968 0.426667l-154.837333-61.952q-18.901333-7.552-35.754667 3.84Q729.6 491.605333 729.6 512V640q0 37.12-26.24 63.36Q677.12 729.6 640 729.6z m-384-268.8q-30.037333 0-51.285333 21.248T183.466667 533.333333q0 30.037333 21.248 51.285334T256 605.866667q30.037333 0 51.285333-21.248T328.533333 533.333333q0-30.037333-21.248-51.285333T256 460.8z"  horiz-adv-x="1024" />
      
      <glyph glyph-name="quanping" unicode="&#59300;" d="M110.933333 504.874667V661.333333q0 51.242667 36.266667 87.466667 36.224 36.266667 87.466667 36.266667h156.458666q15.872 0 27.136-11.264 11.264-11.221333 11.264-27.136t-11.264-27.136q-11.264-11.264-27.136-11.264H234.666667q-46.933333 0-46.933334-46.933334v-156.458666q0-15.914667-11.264-27.136-11.221333-11.264-27.136-11.264t-27.136 11.264Q110.933333 488.96 110.933333 504.874667zM913.066667 661.333333v-156.458666q0-15.914667-11.264-27.136-11.221333-11.264-27.136-11.264t-27.136 11.264q-11.264 11.221333-11.264 27.136V653.952l-188.288-188.330667q-11.264-11.221333-27.178667-11.221333-15.872 0-27.136 11.221333-11.264 11.264-11.264 27.178667 0 15.872 11.264 27.136L781.994667 708.266667h-149.12q-15.872 0-27.136 11.264-11.221333 11.221333-11.221334 27.136t11.221334 27.136q11.264 11.264 27.136 11.264H789.333333q51.242667 0 87.466667-36.266667 36.266667-36.224 36.266667-87.466667z m-725.333334-398.208v-149.504l219.050667 219.008q11.221333 11.264 27.136 11.264t27.136-11.264q11.264-11.221333 11.264-27.136t-11.264-27.136L242.474667 59.733333h148.650666q15.872 0 27.136-11.264 11.264-11.221333 11.264-27.136t-11.264-27.136q-11.264-11.264-27.136-11.264H234.666667q-51.242667 0-87.466667 36.266667-36.266667 36.224-36.266667 87.466667v156.458666q0 15.872 11.264 27.136 11.221333 11.221333 27.136 11.221334t27.136-11.221334q11.264-11.264 11.264-27.136z m686.933334 38.4q15.914667 0 27.136-11.264 11.264-11.264 11.264-27.136V106.666667q0-51.242667-36.266667-87.466667-36.224-36.266667-87.466667-36.266667h-156.458666q-15.872 0-27.136 11.264-11.264 11.221333-11.264 27.136t11.264 27.136q11.264 11.264 27.136 11.264H789.333333q46.933333 0 46.933334 46.933334v156.458666q0 15.872 11.264 27.136 11.221333 11.221333 27.136 11.221334z"  horiz-adv-x="1024" />
      
      <glyph glyph-name="lianjie2" unicode="&#59301;" d="M448.64 688.725333L403.413333 643.413333q-11.264-11.264-27.178666-11.264t-27.178667 11.264q-11.221333 11.264-11.221333 27.178667 0 15.872 11.221333 27.136l45.269333 45.226667q98.730667 98.773333 238.336 98.773333 139.648 0 238.378667-98.730667 98.730667-98.730667 98.730667-238.378666 0-139.605333-98.730667-238.336l-45.269333-45.226667q-11.264-11.264-27.136-11.264-15.914667 0-27.178667 11.264-11.264 11.221333-11.264 27.136t11.264 27.178667l45.226667 45.226666q76.245333 76.245333 76.245333 184.021334 0 107.818667-76.202667 184.064-76.245333 76.202667-184.064 76.202666-107.776 0-184.021333-76.202666z m-295.68-187.050666l45.269333 45.226666q11.264 11.264 27.136 11.264 15.914667 0 27.178667-11.221333 11.264-11.264 11.264-27.178667t-11.264-27.178666l-45.226667-45.226667q-76.245333-76.245333-76.245333-184.021333 0-107.818667 76.202667-184.064 76.245333-76.202667 184.064-76.202667 107.776 0 184.021333 76.202667l45.226667 45.269333q11.264 11.264 27.178666 11.264t27.178667-11.264q11.221333-11.264 11.221333-27.136 0-15.914667-11.221333-27.178667l-45.269333-45.226666q-98.730667-98.773333-238.336-98.773334-139.648 0-238.378667 98.730667-98.730667 98.730667-98.730667 238.378667 0 139.605333 98.730667 238.336zM638.72 510.72q11.264-11.264 11.264-27.178667t-11.264-27.136l-199.125333-199.125333q-11.221333-11.221333-27.136-11.221333t-27.178667 11.221333q-11.221333 11.264-11.221333 27.178667t11.221333 27.136l199.125333 199.125333q11.264 11.221333 27.178667 11.221333 15.872 0 27.136-11.221333z"  horiz-adv-x="1024" />
      
      <glyph glyph-name="yousuojin" unicode="&#59302;" d="M98.133333 738.133333q0 15.914667 11.264 27.136 11.221333 11.264 27.136 11.264h750.933334q15.914667 0 27.136-11.264 11.264-11.221333 11.264-27.136t-11.264-27.136q-11.221333-11.264-27.136-11.264H136.533333q-15.914667 0-27.136 11.264Q98.133333 722.218667 98.133333 738.133333z m827.733334-234.666666q0-15.914667-11.264-27.136-11.221333-11.264-27.136-11.264h-409.6q-15.914667 0-27.136 11.264-11.264 11.221333-11.264 27.136t11.264 27.136q11.221333 11.264 27.136 11.264h409.6q15.914667 0 27.136-11.264 11.264-11.221333 11.264-27.136zM283.690667 423.978667q19.2-15.36 19.2-39.978667 0-24.618667-19.2-39.978667l-102.4-81.92q-25.130667-20.053333-54.144-6.144-29.013333 13.952-29.013334 46.165334v163.754666q0 32.213333 29.013334 46.165334 29.013333 13.952 54.186666-6.186667l102.357334-81.877333zM925.866667 268.8q0-15.914667-11.264-27.136-11.221333-11.264-27.136-11.264h-409.6q-15.914667 0-27.136 11.264-11.264 11.221333-11.264 27.136t11.264 27.136q11.221333 11.264 27.136 11.264h409.6q15.914667 0 27.136-11.264 11.264-11.221333 11.264-27.136zM98.133333 34.133333q0 15.914667 11.264 27.136 11.221333 11.264 27.136 11.264h750.933334q15.914667 0 27.136-11.264 11.264-11.221333 11.264-27.136t-11.264-27.136q-11.221333-11.264-27.136-11.264H136.533333q-15.914667 0-27.136 11.264-11.264 11.221333-11.264 27.136z"  horiz-adv-x="1024" />
      
      <glyph glyph-name="zuoduiqi" unicode="&#59303;" d="M896 763.733333H128q-15.914667 0-27.178667-11.264Q89.6 741.248 89.6 725.333333t11.221333-27.178666Q112.085333 686.933333 128 686.933333h768q15.914667 0 27.136 11.221334 11.264 11.264 11.264 27.178666t-11.264 27.136Q911.914667 763.733333 896 763.733333z m-256-341.333333H128q-15.914667 0-27.178667-11.264-11.221333-11.221333-11.221333-27.136t11.221333-27.178667q11.264-11.221333 27.178667-11.221333h512q15.914667 0 27.136 11.221333 11.264 11.264 11.264 27.178667t-11.264 27.136Q655.914667 422.4 640 422.4z m128-341.333333H128q-15.914667 0-27.178667-11.264-11.221333-11.221333-11.221333-27.136t11.221333-27.178667q11.264-11.221333 27.178667-11.221333h640q15.914667 0 27.136 11.221333 11.264 11.264 11.264 27.178667t-11.264 27.136Q783.914667 81.066667 768 81.066667z"  horiz-adv-x="1024" />
      
      <glyph glyph-name="wuxuliebiao1" unicode="&#59304;" d="M279.466667 712.533333q-36.224 36.266667-87.466667 36.266667-51.242667 0-87.466667-36.266667-36.266667-36.224-36.266666-87.466666 0-51.242667 36.266666-87.466667 36.224-36.266667 87.466667-36.266667 51.242667 0 87.466667 36.266667 36.266667 36.224 36.266666 87.466667 0 51.242667-36.266666 87.466666z m637.866666 29.952H379.733333q-15.872 0-27.136-11.264-11.221333-11.221333-11.264-27.136 0-15.872 11.264-27.136t27.178667-11.264h537.6q15.872 0 27.136 11.264 11.221333 11.264 11.221333 27.136 0 15.914667-11.264 27.136-11.221333 11.264-27.136 11.264zM225.194667 591.872q-13.738667-13.738667-33.194667-13.738667-19.413333 0-33.194667 13.738667Q145.066667 605.610667 145.066667 625.066667q0 19.413333 13.738666 33.194666 13.781333 13.738667 33.194667 13.738667 19.456 0 33.194667-13.738667 13.738667-13.781333 13.738666-33.194666 0-19.456-13.738666-33.194667z m606.805333-20.053333H379.733333q-15.872 0-27.136-11.264-11.221333-11.221333-11.264-27.136 0-15.872 11.264-27.136t27.178667-11.264h452.266667q15.872 0 27.136 11.264 11.221333 11.264 11.221333 27.136 0 15.914667-11.264 27.136-11.221333 11.264-27.136 11.264z m85.333333-301.354667H379.733333q-15.872 0-27.136-11.264Q341.333333 247.978667 341.333333 232.106667t11.264-27.178667q11.264-11.221333 27.178667-11.221333h537.6q15.872 0 27.136 11.221333 11.221333 11.264 11.221333 27.178667t-11.221333 27.136q-11.264 11.264-27.178667 11.264z m-637.866666-39.893333q-36.224 36.266667-87.466667 36.266666-51.242667 0-87.466667-36.266666-36.266667-36.266667-36.266666-87.509334t36.266666-87.466666q36.224-36.266667 87.466667-36.266667 51.242667 0 87.466667 36.266667 36.266667 36.224 36.266666 87.466666 0 51.242667-36.266666 87.466667z m-54.272-120.704q-13.738667-13.738667-33.194667-13.738667-19.413333 0-33.194667 13.738667-13.738667 13.738667-13.738666 33.194666t13.738666 33.194667q13.781333 13.738667 33.194667 13.738667 19.456 0 33.194667-13.738667t13.738666-33.194667q0-19.456-13.738666-33.194666z m606.805333-10.069334H379.733333q-15.872 0-27.136-11.264Q341.333333 77.312 341.333333 61.44t11.264-27.178667q11.264-11.221333 27.178667-11.221333h452.266667q15.872 0 27.136 11.221333 11.221333 11.264 11.221333 27.178667t-11.221333 27.136q-11.264 11.264-27.178667 11.264z"  horiz-adv-x="1024" />
      
      <glyph glyph-name="juzhongduiqi" unicode="&#59305;" d="M896 763.733333H128q-15.914667 0-27.178667-11.264Q89.6 741.248 89.6 725.333333t11.221333-27.178666Q112.085333 686.933333 128 686.933333h768q15.914667 0 27.136 11.221334 11.264 11.264 11.264 27.178666t-11.264 27.136Q911.914667 763.733333 896 763.733333z m-128-341.333333H256q-15.914667 0-27.178667-11.264-11.221333-11.221333-11.221333-27.136t11.221333-27.178667q11.264-11.221333 27.178667-11.221333h512q15.914667 0 27.136 11.221333 11.264 11.264 11.264 27.178667t-11.264 27.136Q783.914667 422.4 768 422.4z m157.866667-341.333333H98.133333q-15.914667 0-27.178666-11.264-11.221333-11.221333-11.221334-27.136t11.221334-27.178667q11.264-11.221333 27.178666-11.221333h827.733334q15.914667 0 27.178666 11.221333 11.221333 11.264 11.221334 27.178667t-11.221334 27.136q-11.264 11.264-27.178666 11.264z"  horiz-adv-x="1024" />
      
      <glyph glyph-name="qingchugeshi1" unicode="&#59308;" d="M446.549333 780.970667q35.242667 41.898667 89.472 46.336 54.272 4.437333 95.744-31.274667l247.68-214.357333q41.173333-35.498667 45.610667-90.026667 4.394667-54.528-30.464-96.298667l-232.874667-279.168q-25.386667-30.464-64.853333-30.464h-276.48q-32.256 0-56.362667 21.632l-121.856 111.189334q-39.978667 35.84-43.690666 89.813333-3.754667 53.888 30.848 95.104l317.226666 377.514667z m382.72-257.408l-247.68 214.314666q-17.066667 14.677333-39.296 12.885334-22.314667-1.792-36.906666-19.2l-317.312-377.514667q-14.634667-17.450667-13.013334-40.362667 1.578667-22.912 18.432-38.058666l121.856-111.146667q2.133333-1.92 5.034667-1.92h276.48q3.498667 0 5.888 2.816l232.832 279.210667q14.805333 17.706667 12.928 40.874666-1.877333 23.168-19.2 38.101334zM823.466667 13.013333q15.914667 0 27.136-11.264 11.264-11.221333 11.264-27.136t-11.264-27.178666q-11.221333-11.221333-27.136-11.221334H200.533333q-15.914667 0-27.136 11.221334-11.264 11.264-11.264 27.178666t11.264 27.136q11.221333 11.264 27.136 11.264h622.933334z"  horiz-adv-x="1024" />
      
      <glyph glyph-name="xiahuaxian1" unicode="&#59310;" d="M740.821333 795.136Q729.6 783.914667 729.6 768v-298.666667q0-90.154667-63.744-153.856Q602.112 251.733333 512 251.733333q-90.154667 0-153.856 63.744Q294.4 379.178667 294.4 469.333333V768q0 15.914667-11.264 27.136Q271.914667 806.4 256 806.4t-27.178667-11.264Q217.6 783.914667 217.6 768v-298.666667q0-121.941333 86.186667-208.213333Q390.101333 174.933333 512 174.933333t208.213333 86.186667Q806.4 347.434667 806.4 469.333333V768q0 15.914667-11.264 27.136Q783.914667 806.4 768 806.4t-27.178667-11.264zM823.466667 93.866667H200.533333q-15.914667 0-27.136-11.264-11.264-11.221333-11.264-27.136t11.264-27.178667q11.221333-11.221333 27.136-11.221333h622.933334q15.914667 0 27.136 11.221333 11.264 11.264 11.264 27.178667t-11.264 27.136q-11.221333 11.264-27.136 11.264z"  horiz-adv-x="1024" />
      
      <glyph glyph-name="geshishua" unicode="&#59311;" d="M46.933333 725.333333q0 51.242667 36.266667 87.466667Q119.381333 849.066667 170.666667 849.066667h567.338666q51.285333 0 87.466667-36.266667 36.266667-36.224 36.266667-87.466667v-55.893333H896q33.578667 0 57.301333-23.765333 23.765333-23.765333 23.765334-57.344v-229.034667q0-33.578667-23.765334-57.344-23.722667-23.722667-57.301333-23.722667h-398.976q-4.266667 0-4.266667-4.266666v-38.613334h11.178667q21.205333 0 36.181333-15.018666 15.018667-14.976 15.018667-36.181334V0q0-21.205333-15.018667-36.224-14.976-14.976-36.181333-14.976H404.736q-21.205333 0-36.181333 14.976-15.018667 15.018667-15.018667 36.224v184.149333q0 21.205333 15.018667 36.181334 14.976 15.018667 36.181333 15.018666h11.221333v38.613334q0 33.578667 23.722667 57.301333 23.765333 23.765333 57.344 23.765333H896q4.266667 0 4.266667 4.266667V588.330667q0 4.266667-4.266667 4.266666h-34.261333v-55.893333q0-51.242667-36.266667-87.466667-36.181333-36.266667-87.466667-36.266666H170.666667q-51.242667 0-87.466667 36.266666-36.266667 36.224-36.266667 87.466667v188.586667zM137.472 503.466667q13.738667-13.738667 33.194667-13.738667h567.338666q19.456 0 33.194667 13.738667t13.738667 33.194666v188.586667q0 19.498667-13.738667 33.237333t-33.194667 13.738667H170.666667q-19.456 0-33.194667-13.738667T123.733333 725.333333v-188.629333q0-19.456 13.738667-33.194667z"  horiz-adv-x="1024" />
      
      <glyph glyph-name="fengexian1" unicode="&#59312;" d="M257.066667 738.133333q15.914667 0 27.136-11.264t11.264-27.136q0-15.914667-11.264-27.136-11.221333-11.264-27.136-11.264H136.533333q-15.914667 0-27.136 11.221334Q98.133333 683.818667 98.133333 699.733333t11.264 27.136Q120.618667 738.133333 136.533333 738.133333h120.533334z m354.133333 0q15.914667 0 27.178667-11.264 11.221333-11.221333 11.221333-27.136t-11.221333-27.178666q-11.264-11.221333-27.178667-11.221334h-198.4q-15.914667 0-27.178667 11.221334-11.221333 11.264-11.221333 27.178666t11.221333 27.136q11.264 11.264 27.178667 11.264h198.4z m276.266667 0q15.914667 0 27.136-11.264 11.264-11.221333 11.264-27.136t-11.264-27.178666q-11.221333-11.221333-27.136-11.221334h-120.533334q-15.914667 0-27.136 11.264-11.264 11.221333-11.264 27.136 0 15.872 11.264 27.136 11.221333 11.264 27.093334 11.264H887.466667z m0-315.733333q15.914667 0 27.136-11.264 11.264-11.221333 11.264-27.136t-11.264-27.178667q-11.221333-11.221333-27.136-11.221333H136.533333q-15.914667 0-27.136 11.221333Q98.133333 368.085333 98.133333 384t11.264 27.136q11.221333 11.264 27.136 11.264h750.933334zM257.066667 106.666667q15.914667 0 27.136-11.264t11.264-27.136q0-15.914667-11.264-27.136-11.221333-11.264-27.136-11.264H136.533333q-15.914667 0-27.136 11.221333-11.264 11.264-11.264 27.178667t11.264 27.136q11.221333 11.264 27.136 11.264h120.533334z m354.133333 0q15.914667 0 27.178667-11.264 11.221333-11.221333 11.221333-27.136t-11.221333-27.178667q-11.264-11.221333-27.178667-11.221333h-198.4q-15.914667 0-27.178667 11.221333-11.221333 11.264-11.221333 27.178667t11.221333 27.136q11.264 11.264 27.178667 11.264h198.4z m276.266667 0q15.914667 0 27.136-11.264 11.264-11.221333 11.264-27.136t-11.264-27.178667q-11.221333-11.221333-27.136-11.221333h-120.533334q-15.914667 0-27.136 11.264-11.264 11.221333-11.264 27.136 0 15.872 11.264 27.136 11.221333 11.264 27.093334 11.264H887.466667z"  horiz-adv-x="1024" />
      
      <glyph glyph-name="gengduo1" unicode="&#59313;" d="M277.333333 405.333333q0-3.157333-0.298666-6.272t-0.938667-6.229333q-0.597333-3.072-1.536-6.058667-0.896-2.986667-2.133333-5.930666-1.152-2.901333-2.645334-5.674667t-3.242666-5.376q-1.706667-2.645333-3.712-5.077333-2.005333-2.432-4.266667-4.650667-2.176-2.218667-4.608-4.224-2.432-1.962667-5.077333-3.712-2.56-1.749333-5.376-3.242667-2.773333-1.493333-5.674667-2.688-2.901333-1.194667-5.930667-2.133333-2.986667-0.853333-6.058666-1.493333-3.114667-0.64-6.229334-0.938667Q216.490667 341.333333 213.333333 341.333333t-6.272 0.298667q-3.114667 0.298667-6.229333 0.938667-3.072 0.597333-6.058667 1.536-2.986667 0.896-5.930666 2.133333-2.901333 1.152-5.674667 2.645333t-5.376 3.242667q-2.645333 1.706667-5.077333 3.712-2.432 2.005333-4.650667 4.266667-2.218667 2.176-4.224 4.608-1.962667 2.432-3.712 5.077333-1.749333 2.56-3.242667 5.376-1.493333 2.773333-2.688 5.674667-1.194667 2.901333-2.133333 5.930666-0.853333 2.986667-1.493333 6.058667-0.64 3.114667-0.938667 6.229333-0.298667 3.114667-0.298667 6.272t0.298667 6.272q0.298667 3.114667 0.938667 6.229334 0.597333 3.072 1.536 6.058666 0.896 2.986667 2.133333 5.930667 1.152 2.901333 2.645333 5.674667t3.242667 5.376q1.706667 2.645333 3.712 5.077333 2.005333 2.432 4.266667 4.650667 2.176 2.218667 4.608 4.224 2.432 1.962667 5.077333 3.712 2.56 1.749333 5.376 3.242666 2.773333 1.493333 5.674667 2.688 2.901333 1.194667 5.930666 2.133334 2.986667 0.853333 6.058667 1.493333 3.114667 0.64 6.229333 0.938667Q210.176 469.333333 213.333333 469.333333t6.272-0.298666q3.114667-0.298667 6.229334-0.938667 3.072-0.597333 6.058666-1.536 2.986667-0.896 5.930667-2.133333 2.901333-1.152 5.674667-2.645334t5.376-3.242666q2.645333-1.706667 5.077333-3.712 2.432-2.005333 4.650667-4.266667 2.218667-2.176 4.224-4.608 1.962667-2.432 3.712-5.077333 1.749333-2.56 3.242666-5.376 1.493333-2.773333 2.688-5.674667 1.194667-2.901333 2.133334-5.930667 0.853333-2.986667 1.493333-6.058666 0.64-3.114667 0.938667-6.229334 0.298667-3.114667 0.298666-6.272z m298.666667 0q0-3.157333-0.298667-6.272t-0.938666-6.229333q-0.597333-3.072-1.536-6.058667-0.896-2.986667-2.133334-5.930666-1.152-2.901333-2.645333-5.674667t-3.242667-5.376q-1.706667-2.645333-3.712-5.077333-2.005333-2.432-4.266666-4.650667-2.176-2.218667-4.608-4.224-2.432-1.962667-5.077334-3.712-2.56-1.749333-5.376-3.242667-2.773333-1.493333-5.674666-2.688-2.901333-1.194667-5.930667-2.133333-2.986667-0.853333-6.058667-1.493333-3.114667-0.64-6.229333-0.938667Q515.157333 341.333333 512 341.333333t-6.272 0.298667q-3.114667 0.298667-6.229333 0.938667-3.072 0.597333-6.058667 1.536-2.986667 0.896-5.930667 2.133333-2.901333 1.152-5.674666 2.645333t-5.376 3.242667q-2.645333 1.706667-5.077334 3.712-2.432 2.005333-4.650666 4.266667-2.218667 2.176-4.224 4.608-1.962667 2.432-3.712 5.077333-1.749333 2.56-3.242667 5.376-1.493333 2.773333-2.688 5.674667-1.194667 2.901333-2.133333 5.930666-0.853333 2.986667-1.493334 6.058667-0.64 3.114667-0.938666 6.229333-0.298667 3.114667-0.298667 6.272t0.298667 6.272q0.298667 3.114667 0.938666 6.229334 0.597333 3.072 1.536 6.058666 0.896 2.986667 2.133334 5.930667 1.152 2.901333 2.645333 5.674667t3.242667 5.376q1.706667 2.645333 3.712 5.077333 2.005333 2.432 4.266666 4.650667 2.176 2.218667 4.608 4.224 2.432 1.962667 5.077334 3.712 2.56 1.749333 5.376 3.242666 2.773333 1.493333 5.674666 2.688 2.901333 1.194667 5.930667 2.133334 2.986667 0.853333 6.058667 1.493333 3.114667 0.64 6.229333 0.938667Q508.842667 469.333333 512 469.333333t6.272-0.298666q3.114667-0.298667 6.229333-0.938667 3.072-0.597333 6.058667-1.536 2.986667-0.896 5.930667-2.133333 2.901333-1.152 5.674666-2.645334t5.376-3.242666q2.645333-1.706667 5.077334-3.712 2.432-2.005333 4.650666-4.266667 2.218667-2.176 4.224-4.608 1.962667-2.432 3.712-5.077333 1.749333-2.56 3.242667-5.376 1.493333-2.773333 2.688-5.674667 1.194667-2.901333 2.133333-5.930667 0.853333-2.986667 1.493334-6.058666 0.64-3.114667 0.938666-6.229334 0.298667-3.114667 0.298667-6.272z m298.666667 0q0-3.157333-0.298667-6.272t-0.938667-6.229333q-0.597333-3.072-1.536-6.058667-0.896-2.986667-2.133333-5.930666-1.152-2.901333-2.645333-5.674667t-3.242667-5.376q-1.706667-2.645333-3.712-5.077333-2.005333-2.432-4.266667-4.650667-2.176-2.218667-4.608-4.224-2.432-1.962667-5.077333-3.712-2.56-1.749333-5.376-3.242667-2.773333-1.493333-5.674667-2.688-2.901333-1.194667-5.930666-2.133333-2.986667-0.853333-6.058667-1.493333-3.114667-0.64-6.229333-0.938667Q813.824 341.333333 810.666667 341.333333t-6.272 0.298667q-3.114667 0.298667-6.229334 0.938667-3.072 0.597333-6.058666 1.536-2.986667 0.896-5.930667 2.133333-2.901333 1.152-5.674667 2.645333t-5.376 3.242667q-2.645333 1.706667-5.077333 3.712-2.432 2.005333-4.650667 4.266667-2.218667 2.176-4.224 4.608-1.962667 2.432-3.712 5.077333-1.749333 2.56-3.242666 5.376-1.493333 2.773333-2.688 5.674667-1.194667 2.901333-2.133334 5.930666-0.853333 2.986667-1.493333 6.058667-0.64 3.114667-0.938667 6.229333-0.298667 3.114667-0.298666 6.272t0.298666 6.272q0.298667 3.114667 0.938667 6.229334 0.597333 3.072 1.536 6.058666 0.896 2.986667 2.133333 5.930667 1.152 2.901333 2.645334 5.674667t3.242666 5.376q1.706667 2.645333 3.712 5.077333 2.005333 2.432 4.266667 4.650667 2.176 2.218667 4.608 4.224 2.432 1.962667 5.077333 3.712 2.56 1.749333 5.376 3.242666 2.773333 1.493333 5.674667 2.688 2.901333 1.194667 5.930667 2.133334 2.986667 0.853333 6.058666 1.493333 3.114667 0.64 6.229334 0.938667Q807.509333 469.333333 810.666667 469.333333t6.272-0.298666q3.114667-0.298667 6.229333-0.938667 3.072-0.597333 6.058667-1.536 2.986667-0.896 5.930666-2.133333 2.901333-1.152 5.674667-2.645334t5.376-3.242666q2.645333-1.706667 5.077333-3.712 2.432-2.005333 4.650667-4.266667 2.218667-2.176 4.224-4.608 1.962667-2.432 3.712-5.077333 1.749333-2.56 3.242667-5.376 1.493333-2.773333 2.688-5.674667 1.194667-2.901333 2.133333-5.930667 0.853333-2.986667 1.493333-6.058666 0.64-3.114667 0.938667-6.229334 0.298667-3.114667 0.298667-6.272z"  horiz-adv-x="1024" />
      
      <glyph glyph-name="youxuliebiao1" unicode="&#59314;" d="M202.24 481.621333V759.466667H147.968l-5.12-5.248q-10.24-10.666667-26.837333-20.864-16.426667-9.130667-30.506667-12.629334l-12.928-3.242666v-75.562667l21.802667 6.229333q18.346667 5.290667 33.834666 13.568v-180.096H202.24zM375.466667 744.618667h537.6q15.914667 0 27.136-11.264 11.264-11.221333 11.264-27.136 0-15.872-11.264-27.136-11.221333-11.264-27.136-11.264H375.466667q-15.872 0-27.136 11.264T337.066667 706.218667q0 15.914667 11.264 27.136 11.264 11.264 27.136 11.264z m0-170.666667h452.266666q15.914667 0 27.136-11.264 11.264-11.221333 11.264-27.136 0-15.872-11.264-27.136-11.221333-11.264-27.136-11.264H375.466667q-15.872 0-27.136 11.264T337.066667 535.552q0 15.914667 11.264 27.136 11.264 11.264 27.136 11.264zM276.650667 7.509333H72.533333v17.066667q0 44.074667 28.586667 76.202667 14.890667 17.109333 59.050667 47.445333 20.266667 14.08 30.464 24.704 11.605333 13.226667 11.605333 27.093333 0 12.202667-5.12 17.194667-5.802667 4.992-20.138667 4.992-13.866667 0-20.053333-8.405333l-0.085333-0.128-0.298667-0.341334q-7.722667-9.898667-8.576-33.365333l-0.597333-16.469333H73.642667l0.256 17.322666q0.597333 47.488 28.458666 77.226667 29.141333 32.085333 75.989334 32.085333 36.48 0 62.464-18.901333l0.170666-0.128 7.125334-5.76 6.528-6.528 0.170666-0.170667q21.504-23.978667 21.504-58.965333 0-37.76-28.288-69.12l-0.128-0.170667-0.170666-0.128q-14.762667-15.786667-53.333334-41.685333l-0.469333-0.298667-0.128-0.085333q-8.96-5.930667-16.042667-11.392h98.901334v-69.290667zM375.466667 272.597333h537.6q15.914667 0 27.136-11.264 11.264-11.221333 11.264-27.136t-11.264-27.178666q-11.221333-11.221333-27.136-11.221334H375.466667q-15.872 0-27.136 11.221334-11.264 11.264-11.264 27.178666t11.264 27.136q11.264 11.264 27.136 11.264z m0-170.666666h452.266666q15.914667 0 27.136-11.264 11.264-11.221333 11.264-27.136t-11.264-27.178667q-11.221333-11.221333-27.136-11.221333H375.466667q-15.872 0-27.136 11.221333-11.264 11.264-11.264 27.178667t11.264 27.136q11.264 11.264 27.136 11.264z"  horiz-adv-x="1024" />
      
      <glyph glyph-name="chexiao1" unicode="&#59315;" d="M202.368 702.336L157.354667 747.349333q-11.648 11.605333-27.093334 5.802667-15.402667-5.802667-16.512-22.272L102.4 561.578667q-0.768-11.52 7.466667-19.754667 8.192-8.234667 19.797333-7.466667l169.301333 11.306667q16.469333 1.066667 22.229334 16.554667 5.802667 15.445333-5.845334 27.093333L256.853333 647.850667Q355.242667 729.6 485.845333 729.6q147.157333 0 250.965334-101.546667 103.552-101.205333 103.552-244.053333t-103.552-244.053333q-103.808-101.546667-250.965334-101.546667-93.312 0-174.08 44.458667-78.165333 43.093333-126.08 117.205333-8.661333 13.354667-24.192 16.64-15.573333 3.413333-28.928-5.248-13.312-8.618667-16.64-24.192-3.370667-15.530667 5.248-28.885333 58.453333-90.368 153.557334-142.805334Q372.736-38.4 485.845333-38.4q178.346667 0 304.64 123.392 126.72 123.733333 126.72 299.008 0 175.274667-126.72 299.008-126.293333 123.392-304.64 123.392-162.261333 0-283.477333-104.064z"  horiz-adv-x="1024" />
      
      <glyph glyph-name="xieti1" unicode="&#59316;" d="M285.866667 785.066667h537.6q15.914667 0 27.136-11.264 11.264-11.221333 11.264-27.136t-11.264-27.136q-11.221333-11.264-27.136-11.264h-228.224l-88.96-648.533334H738.133333q15.914667 0 27.136-11.264 11.264-11.221333 11.264-27.136t-11.264-27.136q-11.221333-11.264-27.136-11.264H200.533333q-15.914667 0-27.136 11.264-11.264 11.221333-11.264 27.136t11.264 27.136q11.221333 11.264 27.136 11.264h228.821334l88.917333 648.533334H285.866667q-15.914667 0-27.136 11.264Q247.466667 730.752 247.466667 746.666667t11.264 27.136Q269.952 785.066667 285.866667 785.066667z"  horiz-adv-x="1024" />
      
      <glyph glyph-name="tongbugundong" unicode="&#59317;" d="M101.546667 128V640q0 68.906667 48.725333 117.674667Q199.04 806.4 267.946667 806.4h256q68.906667 0 117.674666-48.725333Q690.346667 708.906667 690.346667 640v-512q0-68.949333-48.725334-117.674667Q592.853333-38.4 523.946667-38.4h-256q-68.906667 0-117.674667 48.725333Q101.546667 59.050667 101.546667 128z m76.8 0q0-37.12 26.24-63.36 26.24-26.24 63.36-26.24h256q37.12 0 63.36 26.24 26.24 26.24 26.24 63.36V640q0 37.12-26.24 63.36Q561.066667 729.6 523.946667 729.6h-256q-37.12 0-63.36-26.24Q178.346667 677.12 178.346667 640v-512z m263.936 493.866667q10.24 12.288 26.197333 12.288 16 0 26.24-12.288l52.010667-62.421334q13.866667-16.64 4.693333-36.309333-9.216-19.669333-30.933333-19.669333h-13.610667v-238.933334h13.653333q21.674667 0 30.890667-19.626666 9.173333-19.669333-4.693333-36.352l-52.053334-62.421334q-10.24-12.288-26.197333-12.288-16 0-26.197333 12.288l-52.053334 62.421334q-13.866667 16.64-4.693333 36.309333 9.216 19.626667 30.933333 19.626667h13.610667V503.466667h-13.610667q-21.717333 0-30.890666 19.712-9.216 19.626667 4.693333 36.309333l52.010667 62.421333z m366.933333 0q10.24 12.288 26.197333 12.288 16 0 26.24-12.288l52.010667-62.421334q13.866667-16.64 4.693333-36.309333-9.216-19.669333-30.933333-19.669333h-13.610667v-238.933334h13.653334q21.674667 0 30.890666-19.626666 9.173333-19.669333-4.693333-36.352l-52.053333-62.421334q-10.24-12.288-26.197334-12.288-16 0-26.197333 12.288l-52.053333 62.421334q-13.866667 16.64-4.693334 36.309333 9.216 19.626667 30.933334 19.626667h13.610666V503.466667h-13.610666q-21.717333 0-30.890667 19.712-9.216 19.626667 4.693333 36.309333l52.010667 62.421333z"  horiz-adv-x="1024" />
      
      <glyph glyph-name="zhongzuo1" unicode="&#59318;" d="M817.237333 702.336q-121.173333 104.064-283.477333 104.106667-178.346667 0-304.64-123.434667Q102.4 559.274667 102.4 384q0-175.274667 126.634667-299.008Q355.413333-38.4 533.76-38.4q113.066667 0 211.114667 53.973333 95.146667 52.437333 153.557333 142.805334 8.618667 13.354667 5.290667 28.885333-3.370667 15.573333-16.682667 24.192-13.354667 8.618667-28.928 5.290667-15.530667-3.328-24.192-16.682667-47.914667-74.154667-126.08-117.205333-80.725333-44.458667-174.08-44.458667-147.157333 0-250.965333 101.546667Q179.2 241.152 179.2 384t103.552 244.053333Q386.56 729.6 533.76 729.6q130.602667 0 229.034667-81.749333l-58.581334-58.538667q-11.648-11.648-5.845333-27.093333 5.802667-15.488 22.229333-16.554667l169.301334-11.306667q11.605333-0.768 19.797333 7.466667 8.234667 8.192 7.466667 19.754667L905.813333 730.88q-1.066667 16.469333-16.512 22.272t-27.093333-5.802667L817.237333 702.293333z"  horiz-adv-x="1024" />
      
      <glyph glyph-name="youduiqi" unicode="&#59319;" d="M896 763.733333H128q-15.914667 0-27.178667-11.264Q89.6 741.248 89.6 725.333333t11.221333-27.178666Q112.085333 686.933333 128 686.933333h768q15.914667 0 27.136 11.221334 11.264 11.264 11.264 27.178666t-11.264 27.136Q911.914667 763.733333 896 763.733333z m0-341.333333H384q-15.914667 0-27.178667-11.264-11.221333-11.221333-11.221333-27.136t11.221333-27.178667q11.264-11.221333 27.178667-11.221333h512q15.914667 0 27.136 11.221333 11.264 11.264 11.264 27.178667t-11.264 27.136Q911.914667 422.4 896 422.4z m0-341.333333H256q-15.914667 0-27.178667-11.264-11.221333-11.221333-11.221333-27.136t11.221333-27.178667q11.264-11.221333 27.178667-11.221333h640q15.914667 0 27.136 11.221333 11.264 11.264 11.264 27.178667t-11.264 27.136Q911.914667 81.066667 896 81.066667z"  horiz-adv-x="1024" />
      
      <glyph glyph-name="zuosuojin" unicode="&#59295;" d="M98.133333 738.133333q0 15.914667 11.264 27.136 11.221333 11.264 27.136 11.264h750.933334q15.914667 0 27.136-11.264 11.264-11.221333 11.264-27.136t-11.264-27.136q-11.221333-11.264-27.136-11.264H136.533333q-15.914667 0-27.136 11.264Q98.133333 722.218667 98.133333 738.133333z m341.333334-234.666666q0 15.914667 11.264 27.136 11.221333 11.264 27.136 11.264h409.6q15.914667 0 27.136-11.264 11.264-11.221333 11.264-27.136t-11.264-27.136q-11.221333-11.264-27.136-11.264h-409.6q-15.914667 0-27.136 11.264-11.264 11.221333-11.264 27.136z m-296.490667-79.488l102.4 81.92Q270.506667 525.909333 299.52 512q29.013333-13.952 29.013333-46.165333v-163.754667q0-32.213333-29.013333-46.165333-29.013333-13.952-54.186667 6.186666l-102.357333 81.877334q-19.2 15.36-19.2 39.978666 0 24.618667 19.2 39.978667zM439.466667 268.8q0 15.914667 11.264 27.136 11.221333 11.264 27.136 11.264h409.6q15.914667 0 27.136-11.264 11.264-11.221333 11.264-27.136t-11.264-27.136q-11.221333-11.264-27.136-11.264h-409.6q-15.914667 0-27.136 11.264-11.264 11.221333-11.264 27.136z m-341.333334-234.666667q0 15.914667 11.264 27.136 11.221333 11.264 27.136 11.264h750.933334q15.914667 0 27.136-11.264 11.264-11.221333 11.264-27.136t-11.264-27.136q-11.221333-11.264-27.136-11.264H136.533333q-15.914667 0-27.136 11.264-11.264 11.221333-11.264 27.136z"  horiz-adv-x="1024" />
      
      <glyph glyph-name="yinyong2" unicode="&#59296;" d="M274.688 773.546667q-59.264-31.744-100.138667-69.205334Q98.176 634.24 98.133333 555.221333v-469.205333q0-36.266667 24.405334-63.146667 24.234667-26.624 59.904-30.250666h0.213333l9.130667-0.469334h171.093333l9.130667 0.426667 0.213333 0.042667q33.152 3.413333 56.789333 27.008 23.637333 23.637333 27.008 56.789333v0.213333l0.512 9.130667v213.589333q0 38.826667-27.477333 66.346667-27.52 27.52-66.389333 27.52H174.933333V555.221333q0 45.226667 51.584 92.544 33.28 30.506667 82.986667 57.344 9.258667 4.992 12.501333 14.933334 3.242667 10.112-1.450666 19.541333l-11.477334 22.912q-4.778667 9.514667-14.805333 12.8-10.154667 3.328-19.626667-1.706667z m469.333333 0q-59.264-31.744-100.138666-69.205334-76.373333-70.101333-76.416-149.12v-469.205333q0-36.266667 24.405333-63.146667 24.234667-26.624 59.904-30.250666h0.213333l9.130667-0.469334h171.093333l9.130667 0.426667 0.213333 0.042667q33.152 3.413333 56.789334 27.008 23.637333 23.637333 27.008 56.789333v0.213333l0.512 9.130667v213.589333q0 38.826667-27.477334 66.346667-27.52 27.52-66.389333 27.52h-187.733333V555.221333q0 45.226667 51.584 92.544 33.28 30.506667 82.986666 57.344 9.258667 4.992 12.501334 14.933334 3.242667 10.112-1.450667 19.541333l-11.477333 22.912q-4.778667 9.514667-14.805334 12.8-10.154667 3.328-19.626666-1.706667zM174.933333 316.373333v-230.4q0-17.024 17.066667-17.024h170.666667q17.066667 0 17.066666 17.066667v213.333333q0 17.066667-17.066666 17.066667H174.933333z m469.333334 0v-230.4q0-17.024 17.066666-17.024h170.666667q17.066667 0 17.066667 17.066667v213.333333q0 17.066667-17.066667 17.066667h-187.733333z"  horiz-adv-x="1024" />
      
      <glyph glyph-name="yulan" unicode="&#59297;" d="M853.76 631.850667q144.64-123.733333 144.64-247.893334 0-124.117333-144.64-247.808Q699.52 4.266667 512 4.266667t-341.76 131.84Q25.6 259.84 25.6 384q0 124.16 144.64 247.850667 154.24 131.84 341.76 131.84t341.76-131.84zM220.16 573.44Q102.4 472.746667 102.4 384q0-88.746667 117.76-189.482667 132.693333-113.493333 291.84-113.493333t291.84 113.493333q117.76 100.693333 117.76 189.44 0 88.789333-117.76 189.525334Q671.146667 686.933333 512 686.933333T220.16 573.44zM699.733333 384q0-77.781333-54.997333-132.736-54.954667-55.04-132.736-55.04-77.781333 0-132.736 55.04Q324.266667 306.218667 324.266667 383.957333q0 77.781333 54.997333 132.778667Q434.218667 571.733333 512 571.733333q77.781333 0 132.736-54.997333Q699.733333 461.738667 699.733333 384z m-76.8 0q0 45.952-32.512 78.421333Q557.952 494.933333 512 494.933333t-78.464-32.512Q401.066667 429.952 401.066667 384t32.469333-78.464q32.512-32.469333 78.464-32.469333t78.421333 32.469333q32.512 32.512 32.512 78.464z"  horiz-adv-x="1024" />
      
      <glyph glyph-name="chengchangfuli" unicode="&#59294;" d="M763.6992 657.0496c11.9808 0 21.1456 2.3552 27.5968 7.0144a36.9664 36.9664 0 0 1 13.4656 17.7664c2.56 7.168 3.84 15.2064 3.84 24.2176 0 8.9088-0.4096 17.408-1.28 25.2928a1577.1648 1577.1648 0 0 1-5.7856 25.2416 63.9488 63.9488 0 0 1-10.24 23.1424 33.5872 33.5872 0 0 1-18.6368 12.9024c-7.68 2.1504-17.0496 0.768-28.16-4.2496a1503.232 1503.232 0 0 0-43.6736-20.992c-16.2304-7.5776-32.256-15.104-48.128-22.6304a4184.064 4184.064 0 0 0-43.52-20.4288c-9.8816-4.352-19.5072-9.216-28.928-14.4896a57.9584 57.9584 0 0 1-20.5312-16.7424c-4.2496-6.0416-5.9904-11.776-5.12-17.2032 0.8704-5.376 4.3008-9.8816 10.24-13.4144 5.9904-3.584 15.0016-5.4272 26.9824-5.4272h171.8784z m-331.52 0H260.3008c-12.032 0-21.248 2.3552-27.648 7.0144a36.9152 36.9152 0 0 0-13.4656 17.7664 71.424 71.424 0 0 0-3.7888 24.2176c0 8.9088 0.3584 17.408 1.2288 25.2928 1.7408 7.8848 3.6864 16.2816 5.7856 25.2416 2.0992 8.96 5.632 16.6912 10.24 23.1424a33.6384 33.6384 0 0 0 18.688 12.9024c7.68 2.1504 17.0496 0.768 28.16-4.2496 12.9024-6.5024 27.392-13.5168 43.6736-20.992 16.2304-7.5776 32.256-15.104 48.128-22.6304 15.7696-7.5264 30.3104-14.336 43.52-20.4288 13.312-6.144 22.9376-10.9056 28.928-14.4896 9.4208-5.0176 16.2816-10.6496 20.5312-16.7424 4.2496-6.0416 5.9904-11.776 5.12-17.2032-0.8704-5.376-4.2496-9.8816-10.24-13.4144-5.9904-3.584-14.9504-5.4272-26.9824-5.4272zM156.3648 602.4704c-22.528 0-37.2224-3.1744-43.9296-9.5232-6.656-6.3488-10.0352-16.384-10.0352-30.2592v-79.7184c0-15.0528 3.7376-26.2656 11.1104-33.4848 7.3728-7.2192 22.016-10.8544 43.9296-10.8544h312.1664v163.84H156.416h-0.0512z m712.8576 0c20.3776 0 34.1504-3.7888 41.472-11.3152 7.2704-7.5776 10.9056-18.2272 10.9056-32.1536v-77.824c0-14.4896-3.328-25.2416-10.0352-32.1536-6.656-6.912-19.8144-10.4448-39.424-10.4448h-317.7472v163.84h314.8288v0.0512zM893.3376 384v-300.544c-0.7168-33.9456-3.6352-59.904-23.6544-79.5648-20.0192-19.6608-51.8144-29.4912-95.488-29.4912h-219.8016v409.6h338.944zM130.7136 384v-300.544c0.7168-33.9456 3.6352-59.904 23.6544-79.5648 19.968-19.6608 51.8144-29.4912 95.4368-29.4912h219.8528v409.6h-338.944z"  horiz-adv-x="1024" />
      
      <glyph glyph-name="wodedingdan" unicode="&#59286;" d="M908.8 640a162.133333 162.133333 0 0 1-162.133333 162.133333h-469.333334A162.133333 162.133333 0 0 1 115.2 640v-512a162.133333 162.133333 0 0 1 162.133333-162.133333h341.333334a290.133333 290.133333 0 0 1 290.133333 290.133333V640z m-725.333333 0a93.866667 93.866667 0 0 0 93.866666 93.866667h469.333334A93.866667 93.866667 0 0 0 840.533333 640v-384a221.866667 221.866667 0 0 0-221.866666-221.866667h-341.333334A93.866667 93.866667 0 0 0 183.466667 128V640zM725.333333 503.381333a34.133333 34.133333 0 0 1-34.133333 34.133334H332.8a34.133333 34.133333 0 0 1 0-68.266667h358.4a34.133333 34.133333 0 0 1 34.133333 34.133333z m-128-239.018666a34.133333 34.133333 0 0 1-34.133333 34.133333H332.8a34.133333 34.133333 0 0 1 0-68.266667h230.4a34.133333 34.133333 0 0 1 34.133333 34.133334z"  horiz-adv-x="1024" />
      
      <glyph glyph-name="wodezhuye" unicode="&#59287;" d="M594.218667 759.253333a162.133333 162.133333 0 0 1-164.437334 0l-234.666666-138.026666A162.133333 162.133333 0 0 1 115.2 481.450667V128a162.133333 162.133333 0 0 1 162.133333-162.133333h469.333334a162.133333 162.133333 0 0 1 162.133333 162.133333V481.450667a162.133333 162.133333 0 0 1-79.914667 139.776l-234.666666 138.026666z m-129.792-58.837333a93.866667 93.866667 0 0 0 95.146666 0l234.666667-138.026667A93.909333 93.909333 0 0 0 840.533333 481.450667V128a93.866667 93.866667 0 0 0-93.866666-93.866667h-469.333334A93.866667 93.866667 0 0 0 183.466667 128V481.450667c0 33.28 17.621333 64.085333 46.293333 80.938666l234.666667 138.026667z m196.394666-417.365333a34.133333 34.133333 0 0 1-47.872-6.186667c-24.064-31.274667-60.501333-50.730667-100.949333-50.730667-40.448 0-76.885333 19.456-100.949333 50.730667a34.133333 34.133333 0 0 1-54.101334-41.685333C393.002667 188.373333 448.896 157.866667 512 157.866667c63.146667 0 119.04 30.506667 155.050667 77.312a34.133333 34.133333 0 0 1-6.229334 47.872z"  horiz-adv-x="1024" />
      
      <glyph glyph-name="youhuiquan" unicode="&#59288;" d="M930.133333 597.333333A162.133333 162.133333 0 0 1 768 759.466667H256A162.133333 162.133333 0 0 1 93.866667 597.333333v-106.666666a34.133333 34.133333 0 0 1 34.133333-34.133334 72.533333 72.533333 0 0 0 0-145.066666 34.133333 34.133333 0 0 1-34.133333-34.133334V170.666667A162.133333 162.133333 0 0 1 256 8.533333h512a162.133333 162.133333 0 0 1 162.133333 162.133334v106.666666a34.133333 34.133333 0 0 1-34.133333 34.133334 72.533333 72.533333 0 0 0 0 145.066666 34.133333 34.133333 0 0 1 34.133333 34.133334V597.333333z m-768 0A93.866667 93.866667 0 0 0 256 691.2h512A93.866667 93.866667 0 0 0 861.866667 597.333333v-76.672a140.885333 140.885333 0 0 1 0-273.28V170.666667a93.866667 93.866667 0 0 0-93.866667-93.866667H256A93.866667 93.866667 0 0 0 162.133333 170.666667v76.714666a140.842667 140.842667 0 0 1 0 273.28V597.333333z m478.72-38.314666a34.133333 34.133333 0 0 1-48.256 0l-80.512-80.512-80.512 80.512a34.133333 34.133333 0 1 1-48.213333-48.298667l55.68-55.68H418.133333a34.133333 34.133333 0 1 1 0-68.266667h59.776v-59.733333h-59.733333a34.133333 34.133333 0 1 1 0-68.266667h59.733333v-25.6a34.176 34.176 0 0 1 68.266667 0v25.6h59.733333a34.133333 34.133333 0 0 1 0 68.266667h-59.733333v59.733333h59.733333a34.133333 34.133333 0 0 1 0 68.266667h-20.778666L640.853333 510.72a34.176 34.176 0 0 1 0 48.298667z"  horiz-adv-x="1024" />
      
      <glyph glyph-name="liulanlishi1" unicode="&#59289;" d="M930.133333 384c0 230.912-187.221333 418.133333-418.133333 418.133333-230.912 0-418.133333-187.221333-418.133333-418.133333 0-230.912 187.221333-418.133333 418.133333-418.133333 230.912 0 418.133333 187.221333 418.133333 418.133333z m-768 0a349.866667 349.866667 0 1 0 699.733334 0 349.866667 349.866667 0 0 0-699.733334 0z m383.957334 179.2a34.133333 34.133333 0 0 1-68.266667 0v-187.733333a34.133333 34.133333 0 0 1 34.133333-34.133334l1.749334 0.085334h186.026666a34.133333 34.133333 0 0 1 0 68.266666h-153.642666V563.2z"  horiz-adv-x="1024" />
      
      <glyph glyph-name="wodexuexi1" unicode="&#59290;" d="M397.909333 780.8a76.8 76.8 0 0 0 25.898667-4.522667l85.333333-30.506666a8.533333 8.533333 0 0 1 5.717334 0l85.333333 30.506666a76.8 76.8 0 0 0 25.898667 4.522667H768a162.133333 162.133333 0 0 0 162.133333-162.133333v-431.146667a162.133333 162.133333 0 0 0-162.133333-162.133333h-141.909333a8.576 8.576 0 0 1-2.901334-0.512l-85.333333-30.549334a76.8 76.8 0 0 0-51.712 0l-85.333333 30.549334a8.576 8.576 0 0 1-2.901334 0.512H256a162.133333 162.133333 0 0 0-162.133333 162.133333V618.666667A162.133333 162.133333 0 0 0 256 780.8h141.909333zM256 712.533333a93.866667 93.866667 0 0 1-93.866667-93.866666v-431.146667a93.866667 93.866667 0 0 1 93.866667-93.866667h141.909333c8.832 0 17.578667-1.536 25.898667-4.48l85.333333-30.549333a8.533333 8.533333 0 0 1 5.717334 0l85.333333 30.549333c8.32 2.986667 17.066667 4.437333 25.898667 4.437334H768a93.866667 93.866667 0 0 1 93.866667 93.866666V618.666667A93.866667 93.866667 0 0 1 768 712.533333h-141.909333a8.618667 8.618667 0 0 1-2.901334-0.512l-77.098666-27.562666V418.133333a34.133333 34.133333 0 0 0-68.266667 0V684.501333l-77.013333 27.52a8.618667 8.618667 0 0 1-2.901334 0.512H256z"  horiz-adv-x="1024" />
      
      <glyph glyph-name="fapiaozhongxin" unicode="&#59291;" d="M625.7152-2.1504l70.4512 40.0896q7.8336 4.4544 15.6672 0l70.4512-40.0896 18.5856-10.5984q43.1616-24.576 86.528-0.6656 44.4416 24.4736 44.4416 75.008V639.3856q0 78.4384-54.1696 133.9392Q822.8864 829.44 744.3968 829.44H279.552q-78.4384 0-133.2224-56.1152Q92.16 717.824 92.16 639.3856v-577.792q0-50.5344 44.4416-75.008 43.3664-23.8592 86.528 0.6656l18.5856 10.5984 70.4512 40.0896q7.8336 4.4544 15.6672 0l70.4512-40.0896 70.4512-40.0896q43.264-24.576 86.528 0l70.4512 40.0896z m121.5488 102.4q-43.264 24.576-86.528 0l-70.4512-40.0896-70.4512-40.0896q-7.8336-4.4544-15.6672 0l-70.4512 40.0896-70.4512 40.0896q-43.264 24.576-86.528 0l-70.4512-40.0896-18.6368-10.5984q-8.2432-4.7104-16.4864-0.1536-7.3216 4.0448-7.3216 12.1856V639.3856q0 49.2544 33.792 83.8656 33.6896 34.5088 81.92 34.5088h464.896q48.2304 0 81.92-34.5088 33.792-34.6112 33.792-83.8656v-577.792q0-8.192-7.3216-12.1856-8.192-4.5568-16.4864 0.1536l-18.6368 10.5984-70.4512 40.0896z"  horiz-adv-x="1024" />
      
      <glyph glyph-name="wodeqianbao" unicode="&#59292;" d="M725.333333 8.533333a204.8 204.8 0 0 1 204.8 204.8V554.666667A204.8 204.8 0 0 1 725.333333 759.466667H298.666667A204.8 204.8 0 0 1 93.866667 554.666667v-341.333334A204.8 204.8 0 0 1 298.666667 8.533333h426.666666z m0 682.666667A136.533333 136.533333 0 0 0 861.866667 554.666667v-8.533334h-157.866667a162.133333 162.133333 0 1 1 0-324.266666h157.866667v-8.533334a136.533333 136.533333 0 0 0-136.533334-136.533333H298.666667A136.533333 136.533333 0 0 0 162.133333 213.333333V554.666667A136.533333 136.533333 0 0 0 298.666667 691.2h426.666666z m136.533334-401.066667V477.866667h-157.866667a93.866667 93.866667 0 0 1 0-187.733334h157.866667zM746.666667 384q0-4.181333-0.853334-8.32-0.768-4.138667-2.389333-8.021333-1.621333-3.84-3.968-7.381334-2.304-3.456-5.290667-6.442666-2.986667-2.986667-6.442666-5.290667-3.498667-2.346667-7.381334-3.968-3.882667-1.621333-8.021333-2.432-4.138667-0.810667-8.32-0.810667t-8.32 0.853334q-4.138667 0.768-8.021333 2.389333-3.84 1.621333-7.381334 3.968-3.456 2.304-6.442666 5.290667-2.986667 2.986667-5.290667 6.442666-2.346667 3.498667-3.968 7.381334-1.621333 3.882667-2.432 8.021333-0.810667 4.138667-0.810667 8.32t0.853334 8.32q0.768 4.138667 2.389333 8.021333 1.621333 3.84 3.968 7.381334 2.304 3.456 5.290667 6.442666 2.986667 2.986667 6.442666 5.290667 3.498667 2.346667 7.381334 3.968 3.882667 1.621333 8.021333 2.432 4.138667 0.810667 8.32 0.810667t8.32-0.853334q4.138667-0.768 8.021333-2.389333 3.84-1.621333 7.381334-3.968 3.456-2.304 6.442666-5.290667 2.986667-2.986667 5.290667-6.442666 2.346667-3.498667 3.968-7.381334 1.621333-3.882667 2.432-8.021333 0.810667-4.138667 0.810667-8.32z"  horiz-adv-x="1024" />
      
      <glyph glyph-name="fangkejilu" unicode="&#59293;" d="M738.133333 597.333333a226.133333 226.133333 0 1 1-378.581333-166.997333A344.490667 344.490667 0 0 1 93.866667 95.061333 150.485333 150.485333 0 0 1 244.394667-55.466667h535.210666a150.485333 150.485333 0 0 1 150.528 150.528 344.490667 344.490667 0 0 1-265.728 335.274667A225.493333 225.493333 0 0 1 738.133333 597.333333z m-384 0a157.866667 157.866667 0 1 0 315.733334 0 157.866667 157.866667 0 0 0-315.733334 0zM162.133333 95.061333a276.181333 276.181333 0 0 0 276.138667 276.138667h147.456a276.181333 276.181333 0 0 0 276.138667-276.138667 82.261333 82.261333 0 0 0-82.261334-82.261333H244.394667A82.261333 82.261333 0 0 0 162.133333 95.061333zM661.333333 140.8a34.133333 34.133333 0 0 1-34.133333 34.133333H396.8a34.133333 34.133333 0 0 1 0-68.266666h230.4a34.133333 34.133333 0 0 1 34.133333 34.133333z"  horiz-adv-x="1024" />
      
      <glyph glyph-name="a-zujian3" unicode="&#59285;" d="M106.666667 170.666667V597.333333a128 128 0 0 0 128 128h554.666666a128 128 0 0 0 128-128v-426.666666a128 128 0 0 0-128-128h-554.666666a128 128 0 0 0-128 128z m59.733333 0q0-68.266667 68.266667-68.266667h554.666666q68.266667 0 68.266667 68.266667V597.333333q0 68.266667-68.266667 68.266667h-554.666666Q166.4 665.6 166.4 597.333333v-426.666666zM866.688 634.624l-415.018667-207.530667q-51.754667-25.856-107.989333-12.16-56.234667 13.738667-90.282667 60.544L146.517333 622.421333l48.298667 35.157334 106.88-146.986667q21.162667-29.098667 56.149333-37.632 34.944-8.533333 67.114667 7.594667l415.018667 207.488 26.709333-53.418667z"  horiz-adv-x="1024" />
      
      <glyph glyph-name="a-3_4" unicode="&#59283;" d="M168.96 640v-512q0-78.4896 55.5008-133.9392Q279.9104-61.44 358.4-61.44h307.2q78.4896 0 133.9392 55.5008Q855.04 49.5104 855.04 128V640q0 78.4896-55.5008 133.9392Q744.0896 829.44 665.6 829.44H358.4q-78.4896 0-133.9392-55.5008Q168.96 718.4896 168.96 640z m106.1888-595.2512Q240.64 79.2064 240.64 128V640q0 48.7936 34.5088 83.2512Q309.6064 757.76 358.4 757.76h307.2q48.7936 0 83.2512-34.5088 34.5088-34.4576 34.5088-83.2512v-512q0-48.7936-34.5088-83.2512-34.4576-34.5088-83.2512-34.5088H358.4q-48.7936 0-83.2512 34.5088z"  horiz-adv-x="1024" />
      
      <glyph glyph-name="a-4_3" unicode="&#59284;" d="M66.56 537.6v-307.2q0-78.4896 55.5008-133.9392Q177.5104 40.96 256 40.96h512q78.4896 0 133.9392 55.5008Q957.44 151.9104 957.44 230.4V537.6q0 78.4896-55.5008 133.9392Q846.4896 727.04 768 727.04H256q-78.4896 0-133.9392-55.5008Q66.56 616.0896 66.56 537.6z m106.1888-390.4512Q138.24 181.6064 138.24 230.4V537.6q0 48.7936 34.5088 83.2512Q207.2064 655.36 256 655.36h512q48.7936 0 83.2512-34.5088 34.5088-34.4576 34.5088-83.2512v-307.2q0-48.7936-34.5088-83.2512-34.4576-34.5088-83.2512-34.5088H256q-48.7936 0-83.2512 34.5088z"  horiz-adv-x="1024" />
      
      <glyph glyph-name="dianhua" unicode="&#59281;" d="M208.128 725.333333a29.866667 29.866667 0 0 0-0.384-4.778666Q200.533333 676.010667 200.533333 630.528q0-231.125333 163.413334-394.581333 163.413333-163.413333 394.581333-163.413334 45.482667 0 90.026667 7.253334a29.866667 29.866667 0 0 0 9.557333-58.965334q-49.28-8.021333-99.584-8.021333-255.872 0-436.821333 180.906667Q140.8 374.613333 140.8 630.528q0 50.304 7.978667 99.584A29.866667 29.866667 0 0 0 208.128 725.333333zM230.528 385.066667l152.32 96.938666q7.381333 4.693333 5.674667 13.312l-37.973334 189.866667Q348.458667 695.466667 337.92 695.466667H183.338667V755.2H337.92q25.941333 0 45.994667-16.426667 20.053333-16.469333 25.173333-41.898666l37.973333-189.866667q4.394667-22.016-4.437333-42.666667-8.832-20.693333-27.733333-32.725333l-152.32-96.938667-32.085334 50.389334zM512 102.4l96.938667 152.32q4.693333 7.424 13.312 5.717333l189.866666-37.973333q10.282667-2.048 10.282667-12.544v-154.666667h59.733333V209.92q0 25.941333-16.426666 45.994667-16.469333 20.053333-41.898667 25.130666l-189.866667 37.973334q-22.016 4.394667-42.666666-4.437334-20.693333-8.789333-32.725334-27.733333l-96.938666-152.32L512 102.4z"  horiz-adv-x="1024" />
      
      <glyph glyph-name="xuanzhuan" unicode="&#59280;" d="M732.16 384A117.76 117.76 0 0 1 614.4 501.76H256A117.76 117.76 0 0 1 138.24 384v-204.8A117.76 117.76 0 0 1 256 61.44h358.4a117.76 117.76 0 0 1 117.76 117.76v204.8z m71.68-204.8a189.44 189.44 0 0 0-189.44-189.44H256A189.44 189.44 0 0 0 66.56 179.2v204.8A189.44 189.44 0 0 0 256 573.44h358.4a189.44 189.44 0 0 0 189.44-189.44v-204.8zM885.76 256c0 69.3248-0.6656 168.704-46.6944 250.2656a247.7056 247.7056 0 0 1-106.8032 101.376c-51.2512 25.9072-122.1632 42.7008-220.4672 41.1136a35.84 35.84 0 0 0-25.9584 61.184l109.0048 109.056a35.84 35.84 0 0 0 50.688-50.7392l-50.944-50.8928c67.7376-6.4512 123.8016-22.3744 170.0352-45.824a319.4368 319.4368 0 0 0 136.9088-130.048c56.576-100.352 55.9104-218.5728 55.9104-285.4912a35.84 35.84 0 1 0-71.68 0z"  horiz-adv-x="1024" />
      
      <glyph glyph-name="chengyuan" unicode="&#59759;" d="M417.28 829.44a266.24 266.24 0 0 0 146.022-488.858A394.24 394.24 0 0 0 811.52-25.6a35.84 35.84 0 0 0-71.68 0 322.56 322.56 0 1 1-645.12 0 35.84 35.84 0 0 0-71.68 0 394.291 394.291 0 0 0 248.218 366.182A266.24 266.24 0 0 0 417.28 829.44z m286.464-53.248a223.078 223.078 0 0 0 192.614-220.98c0-71.32-33.587-134.655-85.606-175.462a327.066 327.066 0 0 0 189.594-296.806 35.84 35.84 0 0 0-71.68 0 255.437 255.437 0 0 1-210.432 251.392 35.789 35.789 0 0 0-29.39 37.376 35.84 35.84 0 0 0 25.857 37.837 151.398 151.398 0 0 1-20.634 295.577 35.84 35.84 0 0 0 9.677 71.015zM417.28 757.76a194.56 194.56 0 1 1 0-389.12 194.56 194.56 0 0 1 0 389.12z"  horiz-adv-x="1024" />
      
      <glyph glyph-name="suoding_fuben2" unicode="&#59758;" d="M512 783.36a184.32 184.32 0 0 0 184.32-184.32v-51.2H768a102.4 102.4 0 0 0 102.4-102.4v-358.4A102.4 102.4 0 0 0 768-15.36H256a102.4 102.4 0 0 0-102.4 102.4v358.4A102.4 102.4 0 0 0 256 547.84h71.68v51.2A184.32 184.32 0 0 0 512 783.36z m0-389.12a76.8 76.8 0 0 1-30.72-147.149v-78.131a30.72 30.72 0 0 1 61.44 0v78.131A76.8 76.8 0 0 1 512 394.24z m0 327.68a122.88 122.88 0 0 1-122.88-122.88v-51.2h245.76v51.2A122.88 122.88 0 0 1 512 721.92z"  horiz-adv-x="1024" />
      
      <glyph glyph-name="tingzhi" unicode="&#59756;" d="M512 896c282.752 0 512-229.248 512-512s-229.248-512-512-512S0 101.248 0 384 229.248 896 512 896z m-42.667-298.667a170.667 170.667 0 0 1-170.666-170.666v-85.334a170.667 170.667 0 0 1 170.666-170.666h85.334a170.667 170.667 0 0 1 170.666 170.666v85.334a170.667 170.667 0 0 1-170.666 170.666h-85.334z"  horiz-adv-x="1024" />
      
      <glyph glyph-name="fasong" unicode="&#59757;" d="M512 896c282.752 0 512-229.248 512-512s-229.248-512-512-512S0 101.248 0 384 229.248 896 512 896z m24.405-259.755a34.133 34.133 0 0 1-45.653 2.39l-2.645-2.39L295.04 443.18a34.133 34.133 0 0 1 48.213-48.256l135.254 135.21v-374.186a34.133 34.133 0 0 1 68.266 0V529.323L681.26 394.88a34.133 34.133 0 0 1 48.213 48.213l-193.067 193.11z"  horiz-adv-x="1024" />
      
      <glyph glyph-name="tayan" unicode="&#59754;" d="M515.883 383.275c19.456 0 35.242-16.043 35.242-35.84 0-19.883-15.786-35.968-35.242-35.968h-164.31a35.627 35.627 0 0 0-35.242 35.925c0 19.84 15.786 35.883 35.242 35.883h164.352z m156.586 199.552c19.456 0 35.243-16.043 35.243-35.883 0-19.84-15.787-35.925-35.243-35.925H351.531a35.584 35.584 0 0 0-35.243 35.925c0 19.84 15.787 35.883 35.243 35.883h320.938zM746.837 802.133c105.942 0 191.83-87.552 191.83-195.541v-316.501c0-108.032-85.888-195.584-191.83-195.584h-39.125a3.925 3.925 0 0 1-3.883-3.968v-23.126c0-61.312-67.754-97.28-117.077-62.122l-93.696 66.901a119.723 119.723 0 0 1-69.547 22.315H277.163c-105.942 0-191.83 87.552-191.83 195.626V606.592c0 107.947 85.888 195.541 191.83 195.541h469.674z m-469.674-71.85c-67.03 0-121.344-55.382-121.344-123.734v-316.416c0-68.352 54.314-123.733 121.344-123.733h146.346c39.339 0 77.739-12.33 109.995-35.328l93.653-66.859a3.584 3.584 0 0 1 2.006-0.81 4.64 4.64 0 0 1 2.048 0.512 4.267 4.267 0 0 1 1.621 1.45 3.712 3.712 0 0 1 0.512 2.134V90.58c0 41.899 33.28 75.819 74.368 75.819h39.125c67.03 0 121.344 55.381 121.344 123.733V606.592c0 68.267-54.314 123.69-121.344 123.69H277.163z"  horiz-adv-x="1024" />
      
      <glyph glyph-name="tayan-1" unicode="&#59755;" d="M746.837 802.133c105.899 0 191.83-87.552 191.83-195.541v-316.501c0-107.99-85.888-195.584-191.83-195.584h-39.125c-2.133 0-3.84-1.75-3.84-3.968v-23.126c0-61.312-67.84-97.28-117.12-62.122l-93.653 66.901a119.765 119.765 0 0 1-69.59 22.315H277.163c-105.942 0-191.83 87.594-191.83 195.626V606.592c0 107.99 85.931 195.541 191.83 195.541h469.674zM351.531 383.317a35.627 35.627 0 0 1-35.243-35.925c0-19.84 15.787-35.925 35.243-35.925h164.394a35.584 35.584 0 0 1 35.2 35.925 35.584 35.584 0 0 1-35.2 35.925H351.531z m0 199.51a35.627 35.627 0 0 1-35.243-35.883c0-19.84 15.787-35.925 35.243-35.925h320.938a35.584 35.584 0 0 1 35.243 35.925 35.627 35.627 0 0 1-35.243 35.883H351.531z"  horiz-adv-x="1024" />
      
      <glyph glyph-name="chenggong" unicode="&#59749;" d="M512 384m-512 0a512 512 0 1 1 1024 0 512 512 0 1 1-1024 0ZM252.8 419.2c16 16 41.6 16 57.6 0l131.2-131.2 275.2 275.2c16 16 41.6 16 57.6 0s16-41.6 0-57.6l-304-304c-3.2-3.2-9.6-6.4-12.8-9.6-12.8-6.4-28.8-3.2-41.6 6.4l-160 160c-16 16-16 41.6 0 57.6z"  horiz-adv-x="1024" />
      
      <glyph glyph-name="shibai" unicode="&#59750;" d="M512 384m-512 0a512 512 0 1 1 1024 0 512 512 0 1 1-1024 0ZM307.2 588.8c16 16 38.4 16 54.4 0l150.4-150.4 150.4 150.4c16 16 38.4 16 54.4 0s16-38.4 0-54.4L566.4 384l150.4-150.4c16-16 16-38.4 0-54.4s-38.4-16-54.4 0L512 329.6l-150.4-150.4c-16-16-38.4-16-54.4 0s-16 38.4 0 54.4l150.4 150.4-150.4 150.4c-16 16-16 38.4 0 54.4z"  horiz-adv-x="1024" />
      
      <glyph glyph-name="cuowutishi" unicode="&#59751;" d="M512 798.72a414.72 414.72 0 0 0 414.72-414.72 414.72 414.72 0 0 0-414.72-414.72A414.72 414.72 0 0 0 97.28 384 414.72 414.72 0 0 0 512 798.72z m0-552.96a40.96 40.96 0 1 1 0-81.92 40.96 40.96 0 0 1 0 81.92z m0 358.4a30.72 30.72 0 0 1-30.72-30.72v-245.76a30.72 30.72 0 0 1 61.44 0V573.44a30.72 30.72 0 0 1-30.72 30.72z"  horiz-adv-x="1024" />
      
      <glyph glyph-name="yiguanbi" unicode="&#59752;" d="M926.72 384a414.72 414.72 0 0 0-414.72-414.72A414.72 414.72 0 0 0 97.28 384 414.72 414.72 0 0 0 512 798.72a414.72 414.72 0 0 0 414.72-414.72zM367.2576 528.7424a30.72 30.72 0 0 0 43.52 0l101.376-101.376 101.376 101.376a30.72 30.72 0 1 0 43.3664-43.4176l-101.376-101.376 101.4272-101.376a30.72 30.72 0 0 0-43.4688-43.52l-101.376 101.4272-101.376-101.376a30.72 30.72 0 1 0-43.4176 43.4176l101.376 101.376-101.376 101.376a30.72 30.72 0 0 0 0 43.4688z"  horiz-adv-x="1024" />
      
      <glyph glyph-name="daizhifu" unicode="&#59753;" d="M926.72 384a414.72 414.72 0 0 0-414.72-414.72A414.72 414.72 0 0 0 97.28 384 414.72 414.72 0 0 0 512 798.72a414.72 414.72 0 0 0 414.72-414.72zM491.52 588.8a30.72 30.72 0 0 1-30.72-30.72v-194.56a30.5664 30.5664 0 0 1 30.72-30.72h194.56a30.72 30.72 0 1 1 0 61.44h-163.84V558.08a30.72 30.72 0 0 1-30.72 30.72z"  horiz-adv-x="1024" />
      
      <glyph glyph-name="a-tianjianeirong1x" unicode="&#59746;" d="M834.56 384V640A117.76 117.76 0 0 1 716.8 757.76H419.84v-194.56a87.04 87.04 0 0 0-87.04-87.04H189.44V128A117.76 117.76 0 0 1 307.2 10.24h204.8a35.84 35.84 0 0 0 0-71.68H307.2A189.44 189.44 0 0 0 117.76 128V493.7216c0 20.0704 6.9632 39.5776 19.712 55.1424l203.4176 248.6272A87.04 87.04 0 0 0 408.2688 829.44H716.8A189.44 189.44 0 0 0 906.24 640v-256a35.84 35.84 0 0 0-71.68 0zM229.2224 547.84L348.16 693.248V563.2a15.36 15.36 0 0 0-15.36-15.36H229.2224zM788.48 209.92a35.84 35.84 0 0 1-71.68 0V128h-81.92a35.84 35.84 0 0 1 0-71.68H716.8V-25.6a35.84 35.84 0 0 1 71.68 0v81.92H870.4a35.84 35.84 0 0 1 0 71.68h-81.92v81.92z"  horiz-adv-x="1024" />
      
      <glyph glyph-name="a-qingkongduihua1x" unicode="&#59747;" d="M553.1136 842.24a87.04 87.04 0 0 0 87.04-87.04v-117.76h134.2976a87.04 87.04 0 0 0 80.7936-54.6816l61.44-153.6a86.9888 86.9888 0 0 0-53.248-114.7392c42.9568-110.848 26.624-227.6352 2.9184-304.5376-16.9472-54.9888-69.3248-84.1216-120.5248-84.1216H159.9488c-30.1056 0-48.128 22.1696-54.9888 40.0384-6.8096 17.92-7.68 43.5712 8.5504 64l6.144 8.0896c29.7472 41.3184 47.9232 95.8464 57.6512 151.6032 8.1408 46.4896 10.0352 91.648 8.8576 126.7712A87.0912 87.0912 0 0 0 138.24 429.1584l61.44 153.6A87.04 87.04 0 0 0 280.576 637.44h108.6976v117.76a87.04 87.04 0 0 0 87.04 87.04h76.8zM258.048 309.76c0.768-38.2464-1.7408-84.8384-10.0864-132.6592-10.5984-60.672-31.232-126.3616-69.12-179.6608h132.096c41.3184 33.6384 62.976 101.0688 62.976 168.96a35.84 35.84 0 0 0 71.68 0c0-54.1696-11.9296-117.5552-42.3424-168.96h138.0864c41.3184 33.6384 62.976 101.0688 62.976 168.96a35.84 35.84 0 0 0 71.68 0c0-54.1696-11.9296-117.5552-42.3424-168.96h112.128c26.368 0 46.1824 14.4896 52.0704 33.5872 23.04 74.8032 35.4304 183.3984-10.3936 278.7328H258.048z m218.2656 460.8a15.36 15.36 0 0 1-15.36-15.36v-153.6a35.84 35.84 0 0 0-35.84-35.84H280.576a15.36 15.36 0 0 1-14.2848-9.6768l-61.44-153.6a15.36 15.36 0 0 1 14.2336-20.992h616.8064a15.36 15.36 0 0 1 14.2848 20.992l-61.44 153.6a15.36 15.36 0 0 1-14.2848 9.6768h-170.1376a35.84 35.84 0 0 0-35.84 35.84v153.6a15.36 15.36 0 0 1-15.36 15.36h-76.8z"  horiz-adv-x="1024" />
      
      <glyph glyph-name="zhidingduihua" unicode="&#59748;" d="M857.6 832a38.4 38.4 0 0 0 0-76.8H166.4a38.4 38.4 0 0 0 0 76.8h691.2z m-192-547.2a38.4 38.4 0 0 0 38.336 38.336h128l4.48 0.384a25.6 25.6 0 0 1 10.88 45.76l-320 240-3.584 2.24a25.6 25.6 0 0 1-27.136-2.24l-320-240a25.6 25.6 0 0 1 15.36-46.144h128a38.4 38.4 0 0 0 38.4-38.4v-235.648l0.512-5.12a25.6 25.6 0 0 1 25.088-20.48h256l5.12 0.512a25.6 25.6 0 0 1 20.48 25.088V284.736z m76.672-235.712a102.4 102.4 0 0 0-102.4-102.4h-256a102.4 102.4 0 0 0-102.336 102.4V246.4H192c-98.368 0-140.288 125.312-61.504 184.32l320 240a102.464 102.464 0 0 0 115.904 4.8l6.976-4.736v-0.064l320-240.064c78.72-59.072 36.992-184.256-61.44-184.32h-89.6v-197.248z"  horiz-adv-x="1024" />
      
      <glyph glyph-name="cebianlan" unicode="&#59744;" d="M716.8 803.84a240.64 240.64 0 0 0 240.64-240.64v-358.4a240.64 240.64 0 0 0-240.64-240.64H307.2a240.64 240.64 0 0 0-240.64 240.64v358.4A240.64 240.64 0 0 0 307.2 803.84h409.6z m-337.92-768H716.8a168.96 168.96 0 0 1 168.96 168.96v358.4A168.96 168.96 0 0 1 716.8 732.16H378.88v-696.32zM307.2 732.16a168.96 168.96 0 0 1-168.96-168.96v-358.4A168.96 168.96 0 0 1 307.2 35.84V732.16z"  horiz-adv-x="1024" />
      
      <glyph glyph-name="gongju" unicode="&#59745;" d="M424.96 826.112a174.08 174.08 0 0 0 174.08 0l252.3136-145.664a174.08 174.08 0 0 0 87.04-150.784v-291.328a174.1312 174.1312 0 0 0-87.04-150.784L599.04-58.112a174.1312 174.1312 0 0 0-174.08 0L172.6464 87.552a174.1312 174.1312 0 0 0-87.04 150.7328V529.664a174.08 174.08 0 0 0 87.04 150.784L424.96 826.112zM563.2 764.0576a102.4 102.4 0 0 1-102.4 0L208.4864 618.3424l-5.7856-3.584a102.4 102.4 0 0 1-45.4144-85.0944v-291.328l0.2048-6.8608a102.4 102.4 0 0 1 50.9952-81.8176L460.8 3.9424a102.4 102.4 0 0 1 96.4096-3.2256l5.9904 3.2256 252.3136 145.7152a102.4 102.4 0 0 1 50.9952 81.8176l0.2048 6.8096V529.664a102.4 102.4 0 0 1-45.4144 85.0944l-5.7856 3.584L563.2 764.0576zM451.84 572.8256c13.312-0.2048 25.9072-7.68 31.8976-20.5312l142.848-306.2784a35.84 35.84 0 0 0-65.024-30.2592l-37.9392 81.4592a36.2496 36.2496 0 0 0-7.3728-0.768h-133.12c-1.9456 0-3.8912 0.3072-5.7856 0.6656l-37.888-81.408a35.84 35.84 0 0 0-65.024 30.3104l142.848 306.2784a35.7888 35.7888 0 0 0 31.7952 20.5312l0.8704 0.1024h1.1264l0.768-0.1024z m265.1136 0.1024a35.84 35.84 0 0 0 35.84-35.84v-306.176a35.84 35.84 0 0 0-71.68 0V537.088a35.84 35.84 0 0 0 35.84 35.84z m-306.432-204.8H490.496l-40.0384 85.8624-39.9872-85.8624z"  horiz-adv-x="1024" />
      
      <glyph glyph-name="fanhuidingbu1" unicode="&#59743;" d="M834.56 691.2a35.84 35.84 0 0 0 0-71.68H189.44a35.84 35.84 0 0 0 0 71.68h645.12zM486.7072 461.056a35.84 35.84 0 0 0 50.688 0l311.3472-311.3472a35.84 35.84 0 0 0-50.688-50.688l-285.7984 285.8496-286.0032-286.0032a35.84 35.84 0 0 0-50.688 50.688l309.6576 309.6576c0.512 0.5632 0.9216 1.28 1.4848 1.8432z"  horiz-adv-x="1024" />
      
      </font>
</defs>
</svg>
